<?xml version="1.0" standalone="no"?>
<!DOCTYPE svg PUBLIC "-//W3C//DTD SVG 1.1//EN" "http://www.w3.org/Graphics/SVG/1.1/DTD/svg11.dtd" >
<svg xmlns="http://www.w3.org/2000/svg">
<metadata>Generated by IcoMoon</metadata>
<defs>
<font id="evolve-icon" horiz-adv-x="1024">
<font-face units-per-em="1024" ascent="960" descent="-64" />
<missing-glyph horiz-adv-x="1024" />
<glyph unicode="&#x20;" horiz-adv-x="512" d="" />
<glyph unicode="&#xe900;" glyph-name="icon-00s-music-disc" d="M341.333 576c70.571 0 128 57.429 128 128v128c0 70.571-57.429 128-128 128s-128-57.429-128-128v-128c0-70.571 57.429-128 128-128zM298.667 832c0 23.509 19.157 42.667 42.667 42.667s42.667-19.157 42.667-42.667v-128c0-23.509-19.157-42.667-42.667-42.667s-42.667 19.157-42.667 42.667v128zM640 576c70.571 0 128 57.429 128 128v128c0 70.571-57.429 128-128 128s-128-57.429-128-128v-128c0-70.571 57.429-128 128-128zM597.333 832c0 23.509 19.157 42.667 42.667 42.667s42.667-19.157 42.667-42.667v-128c0-23.509-19.157-42.667-42.667-42.667s-42.667 19.157-42.667 42.667v128zM966.272 650.155c2.645 14.72-19.243 23.979-26.027 26.496-32.085 11.819-61.013 24.747-61.013 24.747-25.6 16.299-36.864 41.344-33.152 67.371 4.011 27.691 24.235 50.261 52.864 58.88 56.192 16.939 102.699-21.291 104.619-22.912l20.437-17.152-34.347-40.832-20.309 17.024c-1.067 0.896-27.008 21.12-55.040 12.757-12.501-3.755-14.976-12.032-15.445-15.403-0.341-2.517-0.555-8.789 5.547-12.885 0.683 0 26.197-11.221 54.272-21.589 52.181-19.243 65.237-57.003 60.075-85.931-6.827-38.357-43.477-66.219-87.040-66.219-35.243 0-68.395 14.208-90.88 38.997l-17.92 19.712 39.509 35.84 17.92-19.755c12.203-13.44 31.403-21.504 51.371-21.504 19.115 0 32.597 11.307 34.56 22.229zM0 448c0-282.325 229.675-512 512-512s512 229.675 512 512v42.667h-1024v-42.667zM512 363.691c31.104 0 58.027 16.811 72.96 41.643h91.349c-19.456-72.875-85.376-126.976-164.309-126.976s-144.853 54.101-164.309 126.976h91.349c14.933-24.832 41.856-41.643 72.96-41.643zM260.011 405.333c20.821-120.405 125.739-212.309 251.989-212.309s231.168 91.947 251.989 212.309h172.544c-21.461-215.296-203.691-384-424.533-384s-403.072 168.704-424.533 384h172.544z" />
<glyph unicode="&#xe901;" glyph-name="icon-0" d="M512-64c-188.203 0-341.333 153.131-341.333 341.333v341.333c0 188.203 153.131 341.333 341.333 341.333s341.333-153.131 341.333-341.333v-341.333c0-188.203-153.131-341.333-341.333-341.333zM512 874.667c-141.184 0-256-114.816-256-256v-341.333c0-141.184 114.816-256 256-256s256 114.816 256 256v341.333c0 141.184-114.816 256-256 256z" />
<glyph unicode="&#xe902;" glyph-name="icon-1" d="M597.333-64h-85.333v884.224l-237.312-244.011-61.184 59.477 315.392 324.309h68.437v-1024z" />
<glyph unicode="&#xe903;" glyph-name="icon-2" d="M853.333-64h-682.667v42.667c0 156.672 147.243 232.661 289.664 306.091 158.208 81.621 307.669 158.677 307.669 333.909 0 141.184-114.816 256-256 256s-256-114.816-256-256h-85.333c0 188.203 153.131 341.333 341.333 341.333s341.333-153.131 341.333-341.333c0-227.2-187.989-324.181-353.877-409.728-111.744-57.643-210.475-108.544-236.672-187.605h590.549v-85.333z" />
<glyph unicode="&#xe904;" glyph-name="icon-3" d="M678.101 541.013c54.656 43.008 89.899 109.568 89.899 184.32 0 129.408-105.301 234.667-234.667 234.667h-362.667v-85.333h362.667c82.347 0 149.333-66.987 149.333-149.333s-66.987-149.333-149.333-149.333h-277.333v-85.333h277.333c129.365 0 234.667-105.259 234.667-234.667s-105.301-234.667-234.667-234.667h-362.667v-85.333h362.667c176.469 0 320 143.531 320 320 0 124.331-71.424 232.064-175.232 285.013z" />
<glyph unicode="&#xe905;" glyph-name="icon-4" d="M768 960v-554.667h-469.333c-23.552 0-42.667 19.157-42.667 42.667v512h-85.333v-512c0-70.571 57.429-128 128-128h469.333v-384h85.333v1024h-85.333z" />
<glyph unicode="&#xe906;" glyph-name="icon-5" d="M533.333-64h-362.667v85.333h362.667c64 0 123.819 25.301 168.405 71.253s68.096 106.539 66.133 170.667c-3.755 125.397-114.176 227.413-246.187 227.413h-351.019v341.333c0 70.571 57.429 128 128 128h512v-85.333h-512c-23.552 0-42.667-19.157-42.667-42.667v-256h265.728c177.664 0 326.357-139.179 331.52-310.229 2.603-87.381-29.397-169.984-90.197-232.619-60.843-62.677-142.379-97.152-229.675-97.152z" />
<glyph unicode="&#xe907;" glyph-name="icon-6" d="M512-64c-188.203 0-341.333 153.131-341.333 341.333v341.333c0 188.203 153.131 341.333 341.333 341.333h256v-85.333h-256c-141.184 0-256-114.816-256-256v-115.797c62.592 70.955 154.155 115.797 256 115.797 188.203 0 341.333-153.131 341.333-341.333s-153.131-341.333-341.333-341.333zM256 277.333c0-141.184 114.816-256 256-256s256 114.816 256 256-114.816 256-256 256-256-114.816-256-256z" />
<glyph unicode="&#xe908;" glyph-name="icon-7" d="M381.141-64.512l-76.331 38.144 449.963 901.035h-584.107v85.333h682.667v-78.976l-472.192-945.536z" />
<glyph unicode="&#xe909;" glyph-name="icon-8" d="M653.013 587.819c44.032 39.125 72.32 95.488 72.32 158.848 0 117.632-95.701 213.333-213.333 213.333s-213.333-95.701-213.333-213.333c0-63.36 28.331-119.723 72.32-158.848-117.973-53.803-200.32-172.587-200.32-310.485 0-188.203 153.131-341.333 341.333-341.333s341.333 153.131 341.333 341.333c0 137.899-82.347 256.683-200.32 310.485zM384 746.667c0 70.571 57.429 128 128 128s128-57.429 128-128-57.429-128-128-128-128 57.429-128 128zM512 21.333c-141.184 0-256 114.816-256 256s114.816 256 256 256 256-114.816 256-256-114.816-256-256-256z" />
<glyph unicode="&#xe90a;" glyph-name="icon-9" d="M512-64h-256v85.333h256c141.184 0 256 114.816 256 256v115.797c-62.592-70.955-154.155-115.797-256-115.797-188.203 0-341.333 153.131-341.333 341.333s153.131 341.333 341.333 341.333 341.333-153.131 341.333-341.333v-341.333c0-188.203-153.131-341.333-341.333-341.333zM512 874.667c-141.184 0-256-114.816-256-256s114.816-256 256-256 256 114.816 256 256-114.816 256-256 256z" />
<glyph unicode="&#xe90b;" glyph-name="icon-60s-music-disc" d="M341.333 576c70.571 0 128 57.429 128 128s-57.429 128-128 128c-14.976 0-29.312-2.603-42.667-7.296v7.296c0 23.509 19.157 42.667 42.667 42.667h106.667v85.333h-106.667c-70.571 0-128-57.429-128-128v-128c0-70.571 57.429-128 128-128zM341.333 746.667c23.509 0 42.667-19.157 42.667-42.667s-19.157-42.667-42.667-42.667-42.667 19.157-42.667 42.667 19.157 42.667 42.667 42.667zM640 576c70.571 0 128 57.429 128 128v128c0 70.571-57.429 128-128 128s-128-57.429-128-128v-128c0-70.571 57.429-128 128-128zM597.333 832c0 23.509 19.157 42.667 42.667 42.667s42.667-19.157 42.667-42.667v-128c0-23.509-19.157-42.667-42.667-42.667s-42.667 19.157-42.667 42.667v128zM966.272 650.155c2.645 14.72-19.243 23.979-26.027 26.496-32.085 11.819-61.013 24.747-61.013 24.747-25.6 16.299-36.864 41.344-33.152 67.371 4.011 27.691 24.235 50.261 52.864 58.88 56.192 16.939 102.699-21.291 104.619-22.912l20.437-17.152-34.347-40.832-20.309 17.024c-1.067 0.896-27.008 21.12-55.040 12.757-12.501-3.755-14.976-12.032-15.445-15.403-0.341-2.517-0.555-8.789 5.547-12.885 0.683 0 26.197-11.221 54.272-21.589 52.181-19.243 65.237-57.003 60.075-85.931-6.827-38.357-43.477-66.219-87.040-66.219-35.243 0-68.395 14.208-90.88 38.997l-17.92 19.712 39.509 35.84 17.92-19.755c12.203-13.44 31.403-21.504 51.371-21.504 19.115 0 32.597 11.307 34.56 22.229zM0 448c0-282.325 229.675-512 512-512s512 229.675 512 512v42.667h-1024v-42.667zM512 363.691c31.104 0 58.027 16.811 72.96 41.643h91.349c-19.456-72.875-85.376-127.019-164.309-127.019s-144.853 54.144-164.309 127.019h91.349c14.933-24.832 41.856-41.643 72.96-41.643zM260.011 405.333c20.821-120.405 125.739-212.352 251.989-212.352s231.168 91.947 251.989 212.352h172.544c-21.461-215.296-203.691-384-424.533-384s-403.072 168.704-424.533 384h172.544z" />
<glyph unicode="&#xe90c;" glyph-name="icon-70s-music-disc" d="M0 448c0-282.325 229.675-512 512-512s512 229.675 512 512v42.667h-1024v-42.667zM439.040 405.333c14.933-24.832 41.856-41.643 72.96-41.643s58.027 16.811 72.96 41.643h91.349c-19.456-72.875-85.376-127.019-164.309-127.019s-144.853 54.144-164.309 127.019h91.349zM260.011 405.333c20.821-120.405 125.739-212.352 251.989-212.352s231.168 91.947 251.989 212.352h172.544c-21.461-215.296-203.691-384-424.533-384s-403.072 168.704-424.533 384h172.544zM356.352 874.667h-143.019v85.333h256v-64.128l-176.299-310.229-74.539 41.557 137.856 247.467zM966.272 650.155c2.645 14.72-19.243 23.979-26.027 26.496-32.085 11.819-61.013 24.747-61.013 24.747-25.6 16.299-36.864 41.344-33.152 67.371 4.011 27.691 24.235 50.261 52.864 58.88 56.192 16.939 102.699-21.291 104.619-22.912l20.437-17.152-34.347-40.832-20.309 17.024c-1.067 0.896-27.008 21.12-55.040 12.757-12.501-3.755-14.976-12.032-15.445-15.403-0.341-2.517-0.555-8.789 5.547-12.885 0.683 0 26.197-11.221 54.272-21.589 52.181-19.243 65.237-57.003 60.075-85.931-6.827-38.357-43.477-66.219-87.040-66.219-35.243 0-68.395 14.208-90.88 38.997l-17.92 19.712 39.509 35.84 17.92-19.755c12.203-13.44 31.403-21.504 51.371-21.504 19.115 0 32.597 11.307 34.56 22.229zM512 704c0-70.571 57.429-128 128-128s128 57.429 128 128v128c0 70.571-57.429 128-128 128s-128-57.429-128-128v-128zM597.333 832c0 23.509 19.157 42.667 42.667 42.667s42.667-19.157 42.667-42.667v-128c0-23.509-19.157-42.667-42.667-42.667s-42.667 19.157-42.667 42.667v128z" />
<glyph unicode="&#xe90d;" glyph-name="icon-80s-music-disc" d="M640 576c70.571 0 128 57.429 128 128v128c0 70.571-57.429 128-128 128s-128-57.429-128-128v-128c0-70.571 57.429-128 128-128zM597.333 832c0 23.509 19.115 42.667 42.667 42.667s42.667-19.157 42.667-42.667v-128c0-23.509-19.115-42.667-42.667-42.667s-42.667 19.157-42.667 42.667v128zM966.272 650.155c2.645 14.72-19.243 23.979-26.027 26.496-32.085 11.819-61.013 24.747-61.013 24.747-25.6 16.299-36.864 41.344-33.152 67.371 4.011 27.691 24.235 50.261 52.864 58.88 56.192 16.939 102.699-21.291 104.619-22.912l20.437-17.152-34.347-40.832-20.309 17.024c-1.067 0.896-27.008 21.12-55.040 12.757-12.501-3.755-14.976-12.032-15.445-15.403-0.341-2.517-0.555-8.789 5.547-12.885 0.683 0 26.197-11.221 54.272-21.589 52.181-19.243 65.237-57.003 60.075-85.931-6.827-38.357-43.477-66.219-87.040-66.219-35.243 0-68.395 14.208-90.88 38.997l-17.92 19.712 39.509 35.84 17.92-19.755c12.203-13.44 31.403-21.504 51.371-21.504 19.115 0 32.597 11.307 34.56 22.229zM341.333 576c70.571 0 128 57.429 128 128 0 33.067-12.885 62.805-33.579 85.419 10.795 17.109 17.579 36.907 17.579 58.581 0 61.739-50.261 112-112 112s-112-50.261-112-112c0-21.675 6.827-41.472 17.579-58.581-20.693-22.571-33.579-52.352-33.579-85.419 0-70.571 57.429-128 128-128zM341.333 874.667c14.72 0 26.667-11.947 26.667-26.667s-11.947-26.667-26.667-26.667-26.667 11.947-26.667 26.667 11.947 26.667 26.667 26.667zM341.333 746.667c23.509 0 42.667-19.157 42.667-42.667s-19.157-42.667-42.667-42.667-42.667 19.157-42.667 42.667 19.157 42.667 42.667 42.667zM0 448c0-282.325 229.675-512 512-512s512 229.675 512 512v42.667h-1024v-42.667zM512 363.691c31.104 0 58.027 16.811 72.96 41.643h91.349c-19.456-72.875-85.376-126.976-164.309-126.976s-144.853 54.101-164.309 126.976h91.349c14.933-24.832 41.856-41.643 72.96-41.643zM260.011 405.333c20.821-120.405 125.739-212.309 251.989-212.309s231.168 91.947 251.989 212.309h172.544c-21.461-215.296-203.648-384-424.533-384s-403.072 168.704-424.533 384h172.544z" />
<glyph unicode="&#xe90e;" glyph-name="icon-90s-music-disc" d="M0 446.976c0-282.325 229.675-512 512-512s512 229.675 512 512v42.667h-1024v-42.667zM512 362.667c31.104 0 58.027 16.811 72.96 41.643h91.349c-19.456-72.875-85.376-126.976-164.309-126.976s-144.853 54.101-164.309 126.976h91.349c14.933-24.832 41.856-41.643 72.96-41.643zM260.011 404.309c20.821-120.405 125.739-212.309 251.989-212.309s231.168 91.947 251.989 212.309h172.544c-21.461-215.296-203.648-384-424.533-384s-403.072 168.704-424.533 384h172.544zM341.333 704c14.976 0 29.355 2.603 42.667 7.296v-7.296c0-23.509-19.115-42.667-42.667-42.667h-106.667v-85.333h106.667c70.571 0 128 57.429 128 128v128c0 70.571-57.429 128-128 128s-128-57.429-128-128 57.429-128 128-128zM341.333 874.667c23.552 0 42.667-19.157 42.667-42.667s-19.115-42.667-42.667-42.667-42.667 19.157-42.667 42.667 19.115 42.667 42.667 42.667zM640 576c70.571 0 128 57.429 128 128v128c0 70.571-57.429 128-128 128s-128-57.429-128-128v-128c0-70.571 57.429-128 128-128zM597.333 832c0 23.509 19.115 42.667 42.667 42.667s42.667-19.157 42.667-42.667v-128c0-23.509-19.115-42.667-42.667-42.667s-42.667 19.157-42.667 42.667v128zM966.272 650.155c2.645 14.72-19.243 23.979-26.027 26.496-32.085 11.819-61.013 24.747-61.013 24.747-25.6 16.299-36.864 41.344-33.152 67.371 4.011 27.691 24.235 50.261 52.864 58.88 56.192 16.939 102.699-21.291 104.619-22.912l20.437-17.152-34.347-40.832-20.309 17.024c-1.067 0.896-27.008 21.12-55.040 12.757-12.501-3.755-14.976-12.032-15.445-15.403-0.341-2.517-0.555-8.789 5.547-12.885 0.683 0 26.197-11.221 54.272-21.589 52.181-19.243 65.237-57.003 60.075-85.931-6.827-38.357-43.477-66.219-87.040-66.219-35.243 0-68.395 14.208-90.88 38.997l-17.92 19.712 39.509 35.84 17.92-19.755c12.203-13.44 31.403-21.504 51.371-21.504 19.115 0 32.597 11.307 34.56 22.229z" />
<glyph unicode="&#xe90f;" glyph-name="icon-360-degrees" d="M896 810.667c0 35.328 28.672 64 64 64s64-28.672 64-64-28.672-64-64-64-64 28.672-64 64zM193.536 451.883c25.472 26.795 41.131 63.019 41.131 102.784 0 82.347-66.987 149.333-149.333 149.333h-85.333v-85.333h85.333c35.285 0 64-28.715 64-64s-28.715-64-64-64h-42.667v-85.333h42.667c47.061 0 85.333-38.272 85.333-85.333s-38.272-85.333-85.333-85.333h-85.333v-85.333h85.333c94.123 0 170.667 76.544 170.667 170.667 0 53.077-24.363 100.565-62.464 131.883zM640 320c0-94.123-76.544-170.667-170.667-170.667s-170.667 76.544-170.667 170.667v192c0 105.856 86.144 192 192 192h106.667v-85.333h-106.667c-58.795 0-106.667-47.829-106.667-106.667v-44.245c25.131 14.549 54.272 22.912 85.333 22.912 94.123 0 170.667-76.544 170.667-170.667zM554.667 320c0 47.061-38.272 85.333-85.333 85.333s-85.333-38.272-85.333-85.333 38.272-85.333 85.333-85.333 85.333 38.272 85.333 85.333zM1024 533.333v-213.333c0-94.123-76.544-170.667-170.667-170.667s-170.667 76.544-170.667 170.667v213.333c0 94.123 76.544 170.667 170.667 170.667s170.667-76.544 170.667-170.667zM938.667 533.333c0 47.061-38.272 85.333-85.333 85.333s-85.333-38.272-85.333-85.333v-213.333c0-47.061 38.272-85.333 85.333-85.333s85.333 38.272 85.333 85.333v213.333z" />
<glyph unicode="&#xe910;" glyph-name="icon-404" d="M955.733 320h68.267v-341.333h-68.267v85.333h-68.309c-42.368 0-76.8 34.432-76.8 76.8v179.2h68.267v-179.2c0-4.693 3.84-8.533 8.533-8.533h68.309v187.733zM443.733 132.267h-68.309c-4.693 0-8.533 3.84-8.533 8.533v179.2h-68.267v-179.2c0-42.368 34.432-76.8 76.8-76.8h68.309v-85.333h68.267v341.333h-68.267v-187.733zM768 213.333v-128c0-58.795-47.872-106.667-106.667-106.667s-106.667 47.872-106.667 106.667v128c0 58.795 47.872 106.667 106.667 106.667s106.667-47.872 106.667-106.667zM699.733 213.333c0 21.163-17.237 38.4-38.4 38.4s-38.4-17.237-38.4-38.4v-128c0-21.163 17.237-38.4 38.4-38.4s38.4 17.237 38.4 38.4v128zM192 789.333c-35.328 0-64-28.672-64-64s28.672-64 64-64 64 28.672 64 64-28.672 64-64 64zM362.667 789.333c-35.328 0-64-28.672-64-64s28.672-64 64-64 64 28.672 64 64-28.672 64-64 64zM1024 789.333v-384h-85.333v128h-853.333v-469.333h170.667v-85.333h-256v810.667c0 70.571 57.429 128 128 128h768c70.571 0 128-57.429 128-128zM938.667 618.667v170.667c0 23.509-19.157 42.667-42.667 42.667h-768c-23.509 0-42.667-19.157-42.667-42.667v-170.667h853.333z" />
<glyph unicode="&#xe911;" glyph-name="icon-a" d="M926.421-64h91.989l-384.427 953.131c-21.803 43.691-65.707 70.869-114.517 70.869h-0.085c-48.896 0-92.757-27.221-115.669-73.557l-396.544-950.443h92.459l124.587 298.667h581.803l120.405-298.667zM259.797 320l221.483 531.029c7.339 14.805 21.632 23.637 38.144 23.637v0c16.512 0 30.763-8.832 36.779-20.523l215.339-534.144h-511.744z" />
<glyph unicode="&#xe912;" glyph-name="icon-abacus" d="M810.667 960h-597.333c-70.571 0-128-57.429-128-128v-896h853.333v896c0 70.571-57.429 128-128 128zM213.333 874.667h597.333c23.509 0 42.667-19.115 42.667-42.667v-85.333h-85.333v42.667h-85.333v-42.667h-170.667v42.667h-85.333v-42.667h-85.333v42.667h-85.333v-42.667h-85.333v85.333c0 23.552 19.157 42.667 42.667 42.667zM426.667 277.333v-42.667h-85.333v42.667h-85.333v-42.667h-85.333v170.667h85.333v-42.667h85.333v42.667h85.333v-42.667h85.333v42.667h170.667v-42.667h85.333v42.667h85.333v-170.667h-341.333v42.667h-85.333zM768 490.667v42.667h-85.333v-42.667h-170.667v42.667h-85.333v-42.667h-85.333v42.667h-85.333v-42.667h-85.333v170.667h85.333v-42.667h85.333v42.667h85.333v-42.667h85.333v42.667h170.667v-42.667h85.333v42.667h85.333v-170.667h-85.333zM170.667 21.333v128h85.333v-42.667h85.333v42.667h85.333v-42.667h85.333v42.667h341.333v-128h-682.667z" />
<glyph unicode="&#xe913;" glyph-name="icon-accident" d="M1024 635.051v0l-163.243-99.627 61.355-181.12s0 0 0 0l-239.445 84.011v265.728h-215.339l-51.371 151.765s163.669-59.392 163.669-59.392l59.392 163.669 99.627-163.243 181.12 61.355s0 0 0 0l-59.392-163.669 163.669-59.392zM277.632 448c58.923 0.171 106.539 48.043 106.368 106.965s-48.043 106.539-106.965 106.368c-58.923-0.171-106.539-48.043-106.368-106.965s48.043-106.539 106.965-106.368zM686.208 92.544l238.891-69.035-23.723-82.005-215.637 62.379-229.248-63.659c-10.112-2.304-20.267-3.413-30.165-3.413-51.413 0-97.92 29.952-118.187 77.995l-130.389 305.195h-177.749v256h85.333v-170.667h146.517l280.149 37.333v176h85.333v-250.709l-160.512-21.376 89.685-216.747 142.293 147.499h227.2v-85.333h-190.933l-124.16-128.725 105.344 29.269zM473.984 33.579l-124.672 301.312-80.512-10.752 117.931-276.053c8.107-19.285 28.629-29.653 48.896-25.216l38.4 10.667z" />
<glyph unicode="&#xe914;" glyph-name="icon-acorn" d="M981.333 618.667c0 141.227-114.773 256-256 256h-170.667v85.333h-85.333v-85.333h-170.667c-141.227 0-256-114.773-256-256v-85.333h85.333v-166.827c0-286.293 354.133-418.56 369.493-424.107l14.507-5.12 14.507 5.12c14.933 5.547 369.493 137.813 369.493 424.107v166.827h85.333v85.333zM810.667 366.507c0-197.973-236.8-311.893-298.667-337.92-61.867 26.027-298.667 139.52-298.667 337.92v166.827h597.333v-166.827zM128 618.667c0 94.293 76.373 170.667 170.667 170.667h426.667c94.293 0 170.667-76.373 170.667-170.667h-768z" />
<glyph unicode="&#xe915;" glyph-name="icon-ad" d="M896 874.667h-768c-70.571 0-128-57.429-128-128v-725.333h1024v725.333c0 70.571-57.429 128-128 128zM938.667 106.667h-853.333v640c0 23.509 19.157 42.667 42.667 42.667h768c23.509 0 42.667-19.157 42.667-42.667v-640zM768 476.245c-19.413 9.259-41.131 14.421-64 14.421-82.347 0-149.333-66.987-149.333-149.333s66.987-149.333 149.333-149.333c22.869 0 44.587 5.205 64 14.421v-14.421h85.333v512h-85.333v-227.755zM704 277.333c-35.285 0-64 28.715-64 64s28.715 64 64 64 64-28.715 64-64-28.715-64-64-64zM326.485 704l-182.827-512h90.624l30.464 85.333h153.216l30.464-85.333h90.624l-182.869 512h-29.653zM295.168 362.667l46.123 129.152 46.123-129.152h-92.245z" />
<glyph unicode="&#xe916;" glyph-name="icon-add" d="M512 960c-282.77 0-512-229.23-512-512s229.23-512 512-512c282.77 0 512 229.23 512 512v0c-0.316 282.643-229.358 511.685-511.97 512h-0.030zM512 21.333c-235.641 0-426.667 191.025-426.667 426.667s191.025 426.667 426.667 426.667c235.641 0 426.667-191.025 426.667-426.667v0c-0.267-235.534-191.133-426.4-426.641-426.667h-0.025zM554.667 490.667h170.667v-85.333h-170.667v-170.667h-85.333v170.667h-170.667v85.333h170.667v170.667h85.333z" />
<glyph unicode="&#xe917;" glyph-name="icon-add-document" d="M614.997 960h-401.664c-70.692 0-128-57.308-128-128v0-896h853.333v700.331zM640 814.336l153.003-153.003h-153.003zM170.667 21.333v810.667c0 23.564 19.103 42.667 42.667 42.667v0h341.333v-298.667h298.667v-554.667zM554.667 362.667h128v-85.333h-128v-128h-85.333v128h-128v85.333h128v128h85.333z" />
<glyph unicode="&#xe918;" glyph-name="icon-add-folder" d="M554.667 362.667h128v-85.333h-128v-128h-85.333v128h-128v85.333h128v128h85.333zM1024 704v-725.333h-1024v810.667c0 70.692 57.308 128 128 128v0h223.403l170.667-85.333h373.931c70.692 0 128-57.308 128-128v0zM85.333 789.333v-128h853.333v42.667c0 23.564-19.103 42.667-42.667 42.667v0h-394.069l-170.667 85.333h-203.264c-23.564 0-42.667-19.103-42.667-42.667v0zM938.667 64v512h-853.333v-512z" />
<glyph unicode="&#xe919;" glyph-name="icon-add-image" d="M85.333 106.667h426.667v-85.333h-512v810.667c0 70.571 57.429 128 128 128h682.667c70.571 0 128-57.429 128-128v-384h-85.333v384c0 23.552-19.157 42.667-42.667 42.667h-682.667c-23.509 0-42.667-19.115-42.667-42.667v-432.299l182.613 182.613c46.891 46.848 123.136 46.933 170.027 0l244.651-244.693v-60.331h-60.331l-244.651 244.651c-13.611 13.568-35.755 13.568-49.365 0l-242.944-242.944v-172.373zM640 810.667c70.571 0 128-57.429 128-128s-57.429-128-128-128-128 57.429-128 128 57.429 128 128 128zM640 725.333c-23.509 0-42.667-19.115-42.667-42.667s19.157-42.667 42.667-42.667 42.667 19.115 42.667 42.667-19.157 42.667-42.667 42.667zM1024 192h-170.667v170.667h-85.333v-170.667h-170.667v-85.333h170.667v-170.667h85.333v170.667h170.667v85.333z" />
<glyph unicode="&#xe91a;" glyph-name="icon-address-book" d="M853.333 960h-725.333v-128h-85.333v-85.333h85.333v-85.333h-85.333v-85.333h85.333v-85.333h-85.333v-85.333h85.333v-85.333h-85.333v-85.333h85.333v-85.333h-85.333v-85.333h85.333v-128h725.333c70.692 0 128 57.308 128 128v0 768c0 70.692-57.308 128-128 128v0zM896 64c0-23.564-19.103-42.667-42.667-42.667v0h-640v853.333h640c23.564 0 42.667-19.103 42.667-42.667v0zM554.667 448c70.692 0 128 57.308 128 128s-57.308 128-128 128c-70.692 0-128-57.308-128-128v0c0-70.692 57.308-128 128-128v0zM768 277.333v-85.333h-85.333v85.333c0 23.564-19.103 42.667-42.667 42.667v0h-170.667c-23.564 0-42.667-19.103-42.667-42.667v0-85.333h-85.333v85.333c0 70.692 57.308 128 128 128v0h170.667c70.692 0 128-57.308 128-128v0z" />
<glyph unicode="&#xe91b;" glyph-name="icon-address-card" d="M1024 832v-768c0-70.571-57.429-128-128-128h-213.333v85.333h213.333c23.509 0 42.667 19.157 42.667 42.667v768c0 23.509-19.157 42.667-42.667 42.667h-213.333v85.333h213.333c70.571 0 128-57.429 128-128zM384 52.352v224.981h-384v341.333h384v224.896l353.28-323.243c20.309-20.181 30.763-45.355 30.72-72.149 0-26.752-10.496-51.925-29.483-70.827l-354.517-324.949zM469.333 362.667v-116.352l210.261 192.725c2.517 2.517 3.072 6.912 3.072 9.173 0 2.304-0.555 6.656-4.309 10.411l-209.024 191.189v-116.48h-384v-170.667h384z" />
<glyph unicode="&#xe91c;" glyph-name="icon-ad-forbidden" d="M512 960c-282.325 0-512-229.675-512-512s229.675-512 512-512 512 229.675 512 512-229.675 512-512 512zM85.333 448c0 102.315 36.267 196.267 96.512 269.824l87.68-87.68 60.331 60.331-87.68 87.68c73.6 60.245 167.552 96.512 269.824 96.512 235.264 0 426.667-191.403 426.667-426.667 0-102.315-36.267-196.267-96.512-269.824l-76.501 76.501-60.331-60.331 76.501-76.501c-73.6-60.245-167.552-96.512-269.824-96.512-235.264 0-426.667 191.403-426.667 426.667zM750.933 375.467v145.067c0 54.144-43.989 98.133-98.133 98.133h-98.133v-341.333h98.133c54.144 0 98.133 43.989 98.133 98.133zM682.667 375.467c0-16.469-13.397-29.867-29.867-29.867h-29.867v204.885h29.867c16.469 0 29.867-13.397 29.867-29.867v-145.152zM394.965 618.624v0c-32.299 0-54.656-25.003-59.093-49.749l-58.539-291.541h62.677l11.733 62.891h85.589l11.179-62.891h63.488l-59.605 290.432c-5.12 28.501-25.131 50.859-57.429 50.859zM367.445 405.333l26.624 140.587 27.221-140.587h-53.845z" />
<glyph unicode="&#xe91d;" glyph-name="icon-admin" d="M725.333 490.667c0 117.632-95.701 213.333-213.333 213.333s-213.333-95.701-213.333-213.333 95.701-213.333 213.333-213.333 213.333 95.701 213.333 213.333zM384 490.667c0 70.571 57.429 128 128 128s128-57.429 128-128-57.429-128-128-128-128 57.429-128 128zM810.667 0v-64h-85.333v64c0 58.795-47.829 106.667-106.667 106.667h-213.333c-58.837 0-106.667-47.872-106.667-106.667v-64h-85.333v64c0 105.856 86.144 192 192 192h213.333c105.856 0 192-86.144 192-192zM940.288 288.299l-46.549-71.552s-145.109 92.245-145.109 92.245c38.784 50.347 62.080 113.195 62.080 181.632 0 164.949-133.717 298.667-298.667 298.667s-298.667-133.717-298.667-298.667c0-68.437 23.296-131.328 62.080-181.632l-145.109-92.203s-46.549 71.509-46.549 71.509l76.16 49.579c-20.395 46.848-31.872 98.475-31.872 152.789 0 61.909 15.061 120.277 41.216 172.117l-73.899 48.085 46.592 71.552 73.685-47.957c61.952 75.179 151.936 126.336 253.739 137.643v87.893h85.333v-87.851c101.845-11.307 191.787-62.464 253.739-137.643l73.685 47.957 46.592-71.552-73.899-48.085c26.155-51.84 41.216-110.208 41.216-172.117 0-54.315-11.477-105.899-31.872-152.789l76.16-49.579z" />
<glyph unicode="&#xe91e;" glyph-name="icon-admin-alt" d="M341.333 960c-141.184 0-256-114.816-256-256s114.816-256 256-256 256 114.816 256 256-114.816 256-256 256zM341.333 533.333c-94.123 0-170.667 76.544-170.667 170.667s76.544 170.667 170.667 170.667 170.667-76.544 170.667-170.667-76.544-170.667-170.667-170.667zM192 362.667h234.667v-85.333h-234.667c-58.795 0-106.667-47.872-106.667-106.667v-234.667h-85.333v234.667c0 105.856 86.144 192 192 192zM960 192c0 19.627-3.797 38.187-9.301 56.021l60.416 34.816-42.581 73.941-60.203-34.688c-25.813 27.819-59.435 48-97.664 56.747v69.163h-85.333v-69.163c-38.229-8.747-71.893-28.928-97.664-56.747l-60.203 34.688-42.581-73.941 60.416-34.816c-5.504-17.835-9.301-36.395-9.301-56.021s3.797-38.187 9.301-56.021l-60.416-34.816 42.581-73.941 60.203 34.688c25.813-27.819 59.435-48 97.664-56.747v-69.163h85.333v69.163c38.229 8.747 71.893 28.928 97.664 56.747l60.203-34.688 42.581 73.941-60.416 34.816c5.504 17.835 9.301 36.395 9.301 56.021zM768 85.333c-58.795 0-106.667 47.872-106.667 106.667s47.872 106.667 106.667 106.667 106.667-47.872 106.667-106.667-47.872-106.667-106.667-106.667z" />
<glyph unicode="&#xe91f;" glyph-name="icon-ad-paid" d="M1024 341.333v-21.333h-85.333v21.333c0 23.509-19.157 42.667-42.667 42.667h-42.667c-23.509 0-42.667-19.157-42.667-42.667 0-21.333 12.8-40.235 32.597-48.171l94.464-37.76c52.395-20.992 86.229-70.997 86.229-127.403 0-63.275-46.251-115.627-106.667-125.824v-66.176h-85.333v66.176c-60.416 10.24-106.667 62.549-106.667 125.824v21.333h85.333v-21.333c0-23.509 19.157-42.667 42.667-42.667h42.667c23.509 0 42.667 19.157 42.667 42.667 0 21.333-12.8 40.235-32.597 48.171l-94.464 37.76c-52.395 20.992-86.229 70.997-86.229 127.403 0 63.275 46.251 115.627 106.667 125.824v66.176h85.333v-66.176c60.416-10.24 106.667-62.549 106.667-125.824zM303.061 439.808l59.605-290.432h-63.488l-11.179 62.891h-85.589l-11.733-62.891h-62.677l58.539 291.541c4.395 24.747 26.795 49.792 59.093 49.792s52.309-22.357 57.429-50.859zM271.957 277.333l-27.221 140.587-26.624-140.587h53.803zM482.133 490.667c54.144 0 98.133-43.989 98.133-98.133v-145.067c0-54.144-43.989-98.133-98.133-98.133h-98.133v341.333h98.133zM482.133 422.4c-16.469 0-29.867 0-29.867 0v-204.885s13.397 0 29.867 0 29.867 13.397 29.867 29.867v145.067c0 16.469-13.397 29.867-29.867 29.867zM192 832c-35.328 0-64-28.672-64-64s28.672-64 64-64 64 28.672 64 64-28.672 64-64 64zM362.667 832c-35.328 0-64-28.672-64-64s28.672-64 64-64 64 28.672 64 64-28.672 64-64 64zM1024 832v-256h-938.667v-469.333h554.667v-85.333h-640v810.667c0 70.571 57.429 128 128 128h768c70.571 0 128-57.429 128-128zM938.667 832c0 23.509-19.157 42.667-42.667 42.667h-768c-23.509 0-42.667-19.157-42.667-42.667v-170.667h853.333v170.667z" />
<glyph unicode="&#xe920;" glyph-name="icon-age" d="M330.965 618.667c-32.299 0-54.656-25.045-59.093-49.792l-58.539-291.541h62.677l11.733 62.891h85.589l11.179-62.891h63.488l-59.605 290.432c-5.12 28.501-25.131 50.859-57.429 50.859zM303.445 405.333l26.624 140.587 27.221-140.587h-53.803zM537.6 512.299v-128c0-21.163 17.237-38.4 38.4-38.4 19.541 0 35.115 14.891 37.461 33.835h-37.461v68.267h106.667v-68.267h-0.469c-2.432-56.747-48.853-102.101-106.197-102.101-58.923 0-106.667 47.744-106.667 106.667v128c0 58.923 47.744 106.667 106.667 106.667s106.667-47.744 106.667-106.667h-68.267c0 21.163-17.237 38.4-38.4 38.4s-38.4-17.237-38.4-38.4zM793.6 550.4v-76.843h81.067v-68.267h-81.067v-59.733h81.067v-68.267h-149.333v341.333h149.333v-68.267h-81.067zM997.419 192c-88.704-152.789-253.696-256-442.709-256-282.325 0-512 229.675-512 512s229.632 512 511.957 512c107.861 0 211.968-34.091 298.667-96.469v96.469h85.333v-170.667c0-47.061-38.272-85.333-85.333-85.333h-170.667v85.333h127.872c-73.557 55.211-163.072 85.333-255.872 85.333-235.264 0-426.667-191.403-426.667-426.667s191.403-426.667 426.667-426.667c139.179 0 262.571 67.285 340.523 170.667h102.187z" />
<glyph unicode="&#xe921;" glyph-name="icon-age-alt" d="M298.667 597.333c0-58.923-47.744-106.667-106.667-106.667s-106.667 47.744-106.667 106.667 47.744 106.667 106.667 106.667 106.667-47.744 106.667-106.667zM0 320v-213.333h85.333v-170.667h85.333v170.667h42.667v85.333h-128v128c0 23.509 19.157 42.667 42.667 42.667h85.333v85.333h-85.333c-70.571 0-128-57.429-128-128zM490.667 832c-58.923 0-106.667-47.744-106.667-106.667s47.744-106.667 106.667-106.667 106.667 47.744 106.667 106.667-47.744 106.667-106.667 106.667zM298.667 448v-298.667h85.333v-213.333h85.333v213.333h42.667v85.333h-128v213.333c0 23.509 19.157 42.667 42.667 42.667h85.333v85.333h-85.333c-70.571 0-128-57.429-128-128zM789.333 746.667c58.923 0 106.667 47.744 106.667 106.667s-47.744 106.667-106.667 106.667-106.667-47.744-106.667-106.667 47.744-106.667 106.667-106.667zM981.333 192h-85.333v-256h-85.333v256h-42.667v-256h-85.333v256h-85.333v384c0 70.571 57.429 128 128 128h128c70.571 0 128-57.429 128-128v-384zM896 576c0 23.509-19.157 42.667-42.667 42.667h-128c-23.509 0-42.667-19.157-42.667-42.667v-298.667h213.333v298.667z" />
<glyph unicode="&#xe922;" glyph-name="icon-age-restriction-eighteen" d="M1024 490.667v-85.333h-85.333v-85.333h-85.333v85.333h-85.333v85.333h85.333v85.333h85.333v-85.333h85.333zM476.757 461.184c-20.949 23.552-34.091 54.229-34.091 88.149 0 73.515 59.819 133.333 133.333 133.333s133.333-59.819 133.333-133.333c0-33.92-13.141-64.597-34.091-88.149 27.435-26.24 44.757-62.976 44.757-103.851 0-79.403-64.597-144-144-144s-144 64.597-144 144c0 40.875 17.28 77.611 44.757 103.851zM634.667 357.333c0 32.341-26.325 58.667-58.667 58.667s-58.667-26.325-58.667-58.667 26.325-58.667 58.667-58.667 58.667 26.325 58.667 58.667zM576 501.333c26.453 0 48 21.547 48 48s-21.547 48-48 48-48-21.547-48-48 21.547-48 48-48zM341.333 234.667v426.667h-63.488l-107.349-118.485 63.232-57.259 22.229 24.533v-275.456h85.333zM512 21.333c-235.264 0-426.667 191.403-426.667 426.667s191.403 426.667 426.667 426.667c157.483 0 294.997-86.016 368.939-213.333h95.915c-81.109 175.957-258.731 298.667-464.853 298.667-282.325 0-512-229.675-512-512s229.675-512 512-512c206.123 0 383.744 122.709 464.853 298.667h-95.915c-73.899-127.317-211.413-213.333-368.939-213.333z" />
<glyph unicode="&#xe923;" glyph-name="icon-age-restriction-seven" d="M512 960c-282.325 0-512-229.675-512-512s229.675-512 512-512 512 229.675 512 512-229.675 512-512 512zM512 21.333c-235.264 0-426.667 191.403-426.667 426.667s191.403 426.667 426.667 426.667 426.667-191.403 426.667-426.667-191.403-426.667-426.667-426.667zM725.333 490.667h85.333v-85.333h-85.333v-85.333h-85.333v85.333h-85.333v85.333h85.333v85.333h85.333v-85.333zM256 661.333h256v-52.437l-179.029-373.12-76.8 37.248 147.029 303.019h-147.2v85.333z" />
<glyph unicode="&#xe924;" glyph-name="icon-age-restriction-six" d="M512 960c-282.325 0-512-229.675-512-512s229.675-512 512-512 512 229.675 512 512-229.675 512-512 512zM512 21.333c-235.264 0-426.667 191.403-426.667 426.667s191.403 426.667 426.667 426.667 426.667-191.403 426.667-426.667-191.403-426.667-426.667-426.667zM362.667 522.667c-22.699 0-44.032-5.504-63.317-14.592 3.499 43.861 39.893 78.592 84.651 78.592h85.333v85.333h-85.333c-94.123 0-170.667-76.544-170.667-170.667v-149.333h2.176c10.453-72.192 72.149-128 147.157-128 82.347 0 149.333 66.987 149.333 149.333s-66.987 149.333-149.333 149.333zM362.667 309.333c-35.285 0-64 28.715-64 64s28.715 64 64 64 64-28.715 64-64-28.715-64-64-64zM725.333 490.667h85.333v-85.333h-85.333v-85.333h-85.333v85.333h-85.333v85.333h85.333v85.333h85.333v-85.333z" />
<glyph unicode="&#xe925;" glyph-name="icon-age-restriction-sixteen" d="M597.333 586.667h85.333v85.333h-85.333c-94.123 0-170.667-76.544-170.667-170.667v-138.667c0-85.333 74.325-138.667 149.333-138.667 82.347 0 149.333 66.987 149.333 149.333s-66.987 149.333-149.333 149.333c-22.699 0-44.032-5.504-63.317-14.592 3.499 43.861 39.893 78.592 84.651 78.592zM576 437.333c35.285 0 64-28.715 64-64s-28.715-64-64-64-64 28.715-64 64 28.715 64 64 64zM880.939 234.667h95.915c-81.109-175.957-258.688-298.667-464.853-298.667-282.325 0-512 229.675-512 512s229.675 512 512 512c206.123 0 383.744-122.709 464.853-298.667h-95.915c-73.899 127.317-211.413 213.333-368.939 213.333-235.264 0-426.667-191.403-426.667-426.667s191.403-426.667 426.667-426.667c157.483 0 294.997 86.016 368.939 213.333zM256 234.667v275.456l-22.229-24.576-63.232 57.344 107.392 118.443h63.445v-426.667h-85.333zM1024 490.667v-85.333h-85.333v-85.333h-85.333v85.333h-85.333v85.333h85.333v85.333h85.333v-85.333h85.333z" />
<glyph unicode="&#xe926;" glyph-name="icon-age-restriction-thirteen" d="M1024 490.667v-85.333h-85.333v-85.333h-85.333v85.333h-85.333v85.333h85.333v85.333h85.333v-85.333h85.333zM597.333 320h-128v-85.333h128c70.571 0 128 57.429 128 128 0 38.869-17.749 73.301-45.184 96.768 14.891 20.907 23.851 46.336 23.851 73.899 0 70.571-57.429 128-128 128h-106.667v-85.333h106.667c23.552 0 42.667-19.115 42.667-42.667s-19.115-42.667-42.667-42.667h-64v-85.333h85.333c23.552 0 42.667-19.115 42.667-42.667s-19.115-42.667-42.667-42.667zM384 234.667v426.667h-63.445l-107.392-118.443 63.232-57.344 22.229 24.576v-275.456h85.333zM512 21.333c-235.264 0-426.667 191.403-426.667 426.667s191.403 426.667 426.667 426.667c157.483 0 294.997-86.016 368.939-213.333h95.915c-81.109 175.957-258.731 298.667-464.853 298.667-282.325 0-512-229.675-512-512s229.675-512 512-512c206.123 0 383.744 122.709 464.853 298.667h-95.915c-73.899-127.317-211.413-213.333-368.939-213.333z" />
<glyph unicode="&#xe927;" glyph-name="icon-age-restriction-three" d="M512 960c-282.325 0-512-229.675-512-512s229.675-512 512-512 512 229.675 512 512-229.675 512-512 512zM512 21.333c-235.264 0-426.667 191.403-426.667 426.667s191.403 426.667 426.667 426.667 426.667-191.403 426.667-426.667-191.403-426.667-426.667-426.667zM725.333 490.667h85.333v-85.333h-85.333v-85.333h-85.333v85.333h-85.333v85.333h85.333v85.333h85.333v-85.333zM512 362.667c0-70.571-57.429-128-128-128h-128v85.333h128c23.552 0 42.667 19.157 42.667 42.667s-19.115 42.667-42.667 42.667h-85.333v85.333h64c23.552 0 42.667 19.157 42.667 42.667s-19.115 42.667-42.667 42.667h-106.667v85.333h106.667c70.571 0 128-57.429 128-128 0-27.563-8.96-52.992-23.851-73.899 27.392-23.509 45.184-57.941 45.184-96.768z" />
<glyph unicode="&#xe928;" glyph-name="icon-age-restriction-twelve" d="M1024 490.667v-85.333h-85.333v-85.333h-85.333v85.333h-85.333v85.333h85.333v85.333h85.333v-85.333h85.333zM384 234.667v426.667h-63.488l-107.349-118.485 63.232-57.259 22.229 24.533v-275.456h85.333zM725.333 533.333c0 70.699-57.301 128-128 128s-128-57.301-128-128v-21.333h85.333v21.333c0 23.552 19.115 42.667 42.667 42.667s42.667-19.115 42.667-42.667c0-106.667-170.667-148.907-170.667-245.333v-53.333h256v85.333h-145.536c36.821 33.664 145.536 103.595 145.536 213.333zM512 21.333c-235.264 0-426.667 191.403-426.667 426.667s191.403 426.667 426.667 426.667c157.483 0 294.997-86.016 368.939-213.333h95.915c-81.109 175.957-258.731 298.667-464.853 298.667-282.325 0-512-229.675-512-512s229.675-512 512-512c206.123 0 383.744 122.709 464.853 298.667h-95.915c-73.899-127.317-211.413-213.333-368.939-213.333z" />
<glyph unicode="&#xe929;" glyph-name="icon-age-restriction-twenty-one" d="M1024 490.667v-85.333h-85.333v-85.333h-85.333v85.333h-85.333v85.333h85.333v85.333h85.333v-85.333h85.333zM725.333 234.667v426.667h-63.488l-107.349-118.485 63.232-57.259 22.229 24.533v-275.456h85.333zM512 533.333c0 70.699-57.301 128-128 128s-128-57.301-128-128v-21.333h85.333v21.333c0 23.552 19.115 42.667 42.667 42.667s42.667-19.115 42.667-42.667c0-106.667-170.667-148.907-170.667-245.333v-53.333h256v85.333h-145.536c36.821 33.664 145.536 103.595 145.536 213.333zM512 21.333c-235.264 0-426.667 191.403-426.667 426.667s191.403 426.667 426.667 426.667c157.483 0 294.997-86.016 368.939-213.333h95.915c-81.109 175.957-258.731 298.667-464.853 298.667-282.325 0-512-229.675-512-512s229.675-512 512-512c206.123 0 383.744 122.709 464.853 298.667h-95.915c-73.899-127.317-211.413-213.333-368.939-213.333z" />
<glyph unicode="&#xe92a;" glyph-name="icon-age-restriction-zero" d="M725.333 490.667h85.333v-85.333h-85.333v-85.333h-85.333v85.333h-85.333v85.333h85.333v85.333h85.333v-85.333zM1024 448c0-282.325-229.675-512-512-512s-512 229.675-512 512 229.675 512 512 512 512-229.675 512-512zM938.667 448c0 235.264-191.403 426.667-426.667 426.667s-426.667-191.403-426.667-426.667 191.403-426.667 426.667-426.667 426.667 191.403 426.667 426.667zM512 512v-128c0-82.347-66.987-149.333-149.333-149.333s-149.333 66.987-149.333 149.333v128c0 82.347 66.987 149.333 149.333 149.333s149.333-66.987 149.333-149.333zM426.667 512c0 35.285-28.715 64-64 64s-64-28.715-64-64v-128c0-35.285 28.715-64 64-64s64 28.715 64 64v128z" />
<glyph unicode="&#xe92b;" glyph-name="icon-air-conditioner" d="M896 960h-768c-70.571 0-128-57.429-128-128v-341.333h1024v341.333c0 70.571-57.429 128-128 128zM938.667 576h-853.333v256c0 23.509 19.115 42.667 42.667 42.667h768c23.552 0 42.667-19.157 42.667-42.667v-256zM170.667 746.667h682.667v-85.333h-682.667v85.333zM298.667 405.333h85.333v-298.667c0-94.123-76.544-170.667-170.667-170.667s-170.667 76.544-170.667 170.667 76.544 170.667 170.667 170.667v-85.333c-47.061 0-85.333-38.272-85.333-85.333s38.272-85.333 85.333-85.333 85.333 38.272 85.333 85.333v298.667zM981.333 106.667c0-94.123-76.544-170.667-170.667-170.667s-170.667 76.544-170.667 170.667v298.667h85.333v-298.667c0-47.061 38.272-85.333 85.333-85.333s85.333 38.272 85.333 85.333-38.272 85.333-85.333 85.333v85.333c94.123 0 170.667-76.544 170.667-170.667zM469.333 405.333h85.333v-469.333h-85.333v469.333z" />
<glyph unicode="&#xe92c;" glyph-name="icon-air-freshener" d="M512 645.803v58.197h85.333v85.333h-85.333v42.667c0 70.571-57.429 128-128 128h-85.333c-70.571 0-128-57.429-128-128v-186.197c-101.76-53.717-170.667-166.101-170.667-283.136v-426.667h682.667v426.667c0 117.035-68.907 229.419-170.667 283.136zM256 832c0 23.509 19.157 42.667 42.667 42.667h85.333c23.509 0 42.667-19.157 42.667-42.667v-170.667h-170.667v170.667zM597.333 21.333h-512v341.333c0 88.96 57.045 177.323 136.704 213.333h238.549c79.659-36.011 136.704-124.373 136.704-213.333v-341.333zM170.667 149.333h341.333v256h-341.333v-256zM256 320h170.667v-85.333h-170.667v85.333zM768 746.667c0-23.552-19.115-42.667-42.667-42.667s-42.667 19.115-42.667 42.667 19.115 42.667 42.667 42.667 42.667-19.115 42.667-42.667zM1024 746.667c0-23.552-19.115-42.667-42.667-42.667s-42.667 19.115-42.667 42.667 19.115 42.667 42.667 42.667 42.667-19.115 42.667-42.667zM938.667 917.333c0 23.552 19.115 42.667 42.667 42.667s42.667-19.115 42.667-42.667-19.115-42.667-42.667-42.667-42.667 19.115-42.667 42.667zM1024 576c0-23.552-19.115-42.667-42.667-42.667s-42.667 19.115-42.667 42.667 19.115 42.667 42.667 42.667 42.667-19.115 42.667-42.667zM896 832c0-23.552-19.115-42.667-42.667-42.667s-42.667 19.115-42.667 42.667 19.115 42.667 42.667 42.667 42.667-19.115 42.667-42.667zM896 661.333c0-23.552-19.115-42.667-42.667-42.667s-42.667 19.115-42.667 42.667 19.115 42.667 42.667 42.667 42.667-19.115 42.667-42.667z" />
<glyph unicode="&#xe92d;" glyph-name="icon-airplane-journey" d="M810.667 448.256l150.827 147.541c83.2 83.2 83.2 218.539 0 301.696-40.277 40.277-93.867 62.464-150.827 62.464s-110.549-22.187-150.869-62.464c-83.157-83.2-83.157-218.539 0.341-302.037l150.528-147.2zM720.128 837.163c24.192 24.192 56.32 37.504 90.539 37.504s66.347-13.312 90.496-37.461c49.92-49.92 49.92-131.115 0.341-180.693l-90.837-88.832-90.539 88.491c-49.877 49.92-49.877 131.115 0 181.035zM384 106.667v-42.667h-106.667l-81.536-103.296c-8.32-15.232-24.277-24.704-41.6-24.704h-47.488l49.792 128h-86.101l-65.963 78.208c-12.672 22.187 3.328 49.792 28.885 49.792 8.832 0 17.28-3.499 23.509-9.728l47.36-32.939h52.949l-50.517 128h46.763c17.365 0 33.323-9.472 41.6-24.704l82.304-103.296h53.333c34.219 0 53.333-19.115 53.333-42.667zM1024 234.667c0-94.123-76.544-170.667-170.667-170.667h-384v42.667c0 15.104-2.603 29.44-7.339 42.667h391.339c47.061 0 85.333 38.272 85.333 85.333s-38.272 85.333-85.333 85.333h-469.333c-94.123 0-170.667 76.544-170.667 170.667s76.544 170.667 170.667 170.667h140.757c8.875-29.952 22.571-58.795 41.003-85.333h-181.76c-47.061 0-85.333-38.272-85.333-85.333s38.272-85.333 85.333-85.333h469.333c94.123 0 170.667-76.544 170.667-170.667zM853.376 755.755c0-23.564-19.103-42.667-42.667-42.667s-42.667 19.103-42.667 42.667c0 23.564 19.103 42.667 42.667 42.667s42.667-19.103 42.667-42.667z" />
<glyph unicode="&#xe92e;" glyph-name="icon-airplane-window-open" d="M512 960c-211.712 0-384-172.245-384-384v-256c0-211.755 172.288-384 384-384s384 172.245 384 384v256c0 211.755-172.288 384-384 384zM496.896 319.275c-4.224 11.52-6.229 22.229-6.229 32.725 0 52.907 43.051 96 96 96 50.219 0 92.075-39.595 95.189-90.069l2.048-32.896 32.384-6.272c29.952-5.845 51.669-32.213 51.669-62.72 0-35.285-28.715-64-64-64h-242.091c-19.456 0-35.243 15.829-35.243 35.243 0 18.347 14.464 33.621 32.939 34.816l56.832 3.755-19.541 53.461zM512 874.667c118.827 0 221.397-69.931 269.44-170.667h-538.88c48.043 100.736 150.613 170.667 269.44 170.667zM213.333 320v256c0 14.507 1.408 28.672 3.413 42.667h590.507c2.005-13.995 3.413-28.16 3.413-42.667v-216.107c-13.568 13.952-29.696 25.515-48 33.323-18.773 80.597-91.008 140.075-176 140.075-99.968 0-181.333-81.323-181.333-181.333 0-6.016 0.341-12.032 0.981-18.091-38.699-20.224-64.981-60.672-64.981-106.667 0-66.517 54.101-120.576 120.576-120.576h242.091c6.4 0 12.501 1.109 18.688 1.877-54.059-53.845-128.555-87.211-210.688-87.211-164.693 0-298.667 134.016-298.667 298.667z" />
<glyph unicode="&#xe92f;" glyph-name="icon-airplay" d="M1024 789.333v-640h-131.413l-69.888 85.333h115.968v554.667c0 23.552-19.115 42.667-42.667 42.667h-768c-23.509 0-42.667-19.115-42.667-42.667v-554.667h115.925l-69.888-85.333h-131.371v640c0 70.571 57.429 128 128 128h768c70.571 0 128-57.429 128-128zM610.347 359.253l311.808-380.587h-820.267l311.552 380.331c24.619 29.525 60.459 46.336 98.56 46.336v0c38.101 0 73.941-16.811 98.304-46.080zM741.888 64l-197.333 240.896c-10.923 13.099-25.088 15.104-32.555 15.104s-21.632-2.005-32.811-15.317l-197.12-240.683h459.776z" />
<glyph unicode="&#xe930;" glyph-name="icon-air-pollution" d="M597.333 451.456v209.877h-469.333v-209.877c0-81.792-15.403-161.749-45.781-237.696l-82.219-205.525v-72.192h725.333v72.192l-82.219 205.525c-30.379 75.989-45.781 155.947-45.781 237.696zM213.333 576h298.667v-124.544c0-15.445 1.195-30.763 2.176-46.123h-303.019c0.981 15.36 2.176 30.635 2.176 46.123v124.544zM97.152 21.333l64.299 160.768c17.963 44.843 31.019 90.965 39.68 137.899h323.115c8.661-46.933 21.717-93.056 39.637-137.899l64.299-160.768h-531.029zM941.781 213.76l82.219-205.525v-72.192h-213.333v85.333h116.181l-64.299 160.768c-17.92 44.843-31.019 90.965-39.637 137.899h-140.203v85.333h130.176c-0.981 15.36-2.176 30.677-2.176 46.123v124.544h-128v85.333h213.333v-209.877c0-81.749 15.403-161.707 45.781-237.696zM682.667 746.667h-85.333v64c0 82.347 66.987 149.333 149.333 149.333 23.723 0 46.72-5.675 67.627-16.512 19.925 7.552 50.176 16.512 81.707 16.512 70.571 0 128-57.429 128-128s-57.429-128-128-128v85.333c23.552 0 42.667 19.115 42.667 42.667s-19.115 42.667-42.667 42.667c-26.112 0-56.491-12.416-66.005-17.195l-23.808-11.947-21.291 16c-7.979 6.016-21.035 13.184-38.229 13.184-35.285 0-64-28.715-64-64v-64zM298.667 746.667h-85.333v64c0 82.347 66.987 149.333 149.333 149.333 22.357 0 44.032-4.992 64-14.677 39.936 19.328 88.064 19.328 128 0 0.043 0 0.128 0 0.171 0.085-16.384-23.253-28.544-49.579-35.627-77.952-7.509 3.925-17.024 7.253-28.587 7.253-17.237 0-30.293-7.168-38.229-13.184l-25.771-19.541-25.771 19.541c-7.936 6.016-20.992 13.184-38.229 13.184-35.285 0-64-28.715-64-64v-64z" />
<glyph unicode="&#xe931;" glyph-name="icon-alarm-clock" d="M981.333 405.333c-0.334 244.006-186.652 444.391-424.779 467.012l-1.888 0.145v87.509h-85.333v-87.509c-240.098-22.093-426.667-222.505-426.667-466.493 0-123.343 47.68-235.55 125.613-319.195l-0.259 0.281-82.261-90.368 63.147-57.429 82.517 90.581c77.082-58.672 174.704-93.997 280.576-93.997s203.494 35.326 281.721 94.833l-1.145-0.835 82.517-90.709 63.147 57.429-82.261 90.368c77.658 83.177 125.341 195.208 125.355 318.376v0.003zM512 21.333c-212.077 0-384 171.923-384 384s171.923 384 384 384c212.077 0 384-171.923 384-384v0c-0.267-211.97-172.030-383.733-383.974-384h-0.026zM235.648 885.547l-45.525 72.064c-74.9-44.438-137.824-100.779-188.232-167.146l-1.165-1.6 70.955-47.317c44.79 58.009 99.241 106.094 161.333 142.569l2.635 1.431zM952.32 741.547l70.955 47.317c-51.573 67.968-114.497 124.309-186.421 167.106l-2.977 1.64-45.525-72.064c64.727-37.906 119.178-85.991 163.005-142.703l0.963-1.297zM469.333 661.333v-230.997l140.501-140.501 60.331 60.331-115.499 115.499v195.669z" />
<glyph unicode="&#xe932;" glyph-name="icon-alarm-exclamation" d="M554.667 872.491v87.509h-85.333v-87.509c-238.848-21.632-426.667-222.763-426.667-467.157 0-122.88 47.829-234.496 125.355-318.251l-82.261-90.368 63.104-57.429 82.56 90.709c78.379-58.752 175.317-93.995 280.576-93.995s202.197 35.243 280.576 93.995l82.56-90.709 63.104 57.429-82.261 90.368c77.525 83.755 125.355 195.371 125.355 318.251 0 244.395-187.819 445.525-426.667 467.157zM128 405.333c0 211.755 172.245 384 384 384s384-172.245 384-384-172.245-384-384-384-384 172.245-384 384zM71.68 741.547l-70.955 47.317c51.285 67.925 115.584 125.568 189.397 168.747l45.525-72.064c-63.701-36.821-119.381-85.931-163.968-144zM788.352 885.547l45.525 72.064c73.813-43.179 138.155-100.821 189.397-168.747l-70.955-47.317c-44.587 58.069-100.267 107.221-163.968 144zM469.333 661.333h85.333v-341.333h-85.333v341.333zM469.333 234.667h85.333v-85.333h-85.333v85.333z" />
<glyph unicode="&#xe933;" glyph-name="icon-alarm-plus" d="M554.667 872.491v87.509h-85.333v-87.509c-238.848-21.632-426.667-222.763-426.667-467.157 0-122.88 47.829-234.496 125.355-318.251l-82.261-90.368 63.104-57.429 82.56 90.709c78.379-58.752 175.317-93.995 280.576-93.995s202.197 35.243 280.576 93.995l82.56-90.709 63.104 57.429-82.261 90.368c77.525 83.755 125.355 195.371 125.355 318.251 0 244.395-187.819 445.525-426.667 467.157zM128 405.333c0 211.712 172.288 384 384 384s384-172.288 384-384-172.288-384-384-384-384 172.288-384 384zM71.68 741.547l-70.955 47.317c51.285 67.925 115.584 125.568 189.397 168.747l45.525-72.064c-63.701-36.821-119.381-85.931-163.968-144zM788.352 885.547l45.525 72.064c73.813-43.179 138.155-100.821 189.397-168.747l-70.955-47.317c-44.587 58.069-100.267 107.221-163.968 144zM554.667 448h128v-85.333h-128v-128h-85.333v128h-128v85.333h128v128h85.333v-128z" />
<glyph unicode="&#xe934;" glyph-name="icon-alarm-snooze" d="M788.352 885.547l45.525 72.064c73.813-43.179 138.155-100.821 189.397-168.747l-70.955-47.317c-44.587 58.069-100.267 107.221-163.968 144zM235.648 885.547l-45.525 72.064c-73.813-43.179-138.112-100.821-189.397-168.747l70.955-47.317c44.587 58.069 100.267 107.221 163.968 144zM341.333 490.667h211.328l-211.328-169.344v-86.656h341.333v85.333h-206.549l206.549 165.504v90.496h-341.333v-85.333zM981.333 405.333c0-122.88-47.829-234.496-125.397-318.251l82.261-90.368-63.104-57.429-82.56 90.709c-78.379-58.752-175.317-93.995-280.576-93.995s-202.197 35.243-280.576 93.995l-82.56-90.709-63.104 57.429 82.261 90.368c-77.525 83.755-125.355 195.371-125.355 318.251 0.043 244.395 187.861 445.525 426.709 467.157v87.509h85.333v-87.509c238.848-21.675 426.667-222.763 426.667-467.157zM896 405.333c0 211.712-172.245 384-384 384s-384-172.288-384-384 172.288-384 384-384 384 172.288 384 384z" />
<glyph unicode="&#xe935;" glyph-name="icon-album" d="M1024-64h-1024v896c0 70.4 57.6 128 128 128h768c70.4 0 128-57.6 128-128v-896zM85.333 21.333h853.333v810.667c0 23.467-19.2 42.667-42.667 42.667h-768c-23.467 0-42.667-19.2-42.667-42.667v-810.667zM512 106.667c-188.16 0-341.333 153.173-341.333 341.333s153.173 341.333 341.333 341.333 341.333-153.173 341.333-341.333-153.173-341.333-341.333-341.333zM512 704c-141.227 0-256-114.773-256-256s114.773-256 256-256 256 114.773 256 256-114.773 256-256 256zM512 384c35.413 0 64 28.587 64 64s-28.587 64-64 64-64-28.587-64-64 28.587-64 64-64z" />
<glyph unicode="&#xe936;" glyph-name="icon-album-circle-plus" d="M1024 832v-554.667h-85.333v554.667c0 23.467-19.2 42.667-42.667 42.667h-768c-23.467 0-42.667-19.2-42.667-42.667v-810.667h597.333v-85.333h-682.667v896c0 70.4 57.6 128 128 128h768c70.4 0 128-57.6 128-128zM768 448h85.333c0 188.16-153.173 341.333-341.333 341.333s-341.333-153.173-341.333-341.333 153.173-341.333 341.333-341.333v85.333c-141.227 0-256 114.773-256 256s114.773 256 256 256 256-114.773 256-256zM448 448c0-35.413 28.587-64 64-64s64 28.587 64 64-28.587 64-64 64-64-28.587-64-64zM853.333 362.667h-85.333v-170.667h-170.667v-85.333h170.667v-170.667h85.333v170.667h170.667v85.333h-170.667v170.667z" />
<glyph unicode="&#xe937;" glyph-name="icon-album-circle-user" d="M512 192v-85.333c-188.16 0-341.333 153.173-341.333 341.333s153.173 341.333 341.333 341.333c160 0 293.973-110.507 331.093-259.413-10.667 1.707-21.333 3.413-32.427 3.413-19.2 0-37.12-3.413-54.613-8.107-32.853 103.253-129.707 178.773-244.053 178.773-141.227 0-256-114.773-256-256s114.773-256 256-256zM896 960h-768c-70.4 0-128-57.6-128-128v-896h512v85.333h-426.667v810.667c0 23.467 19.2 42.667 42.667 42.667h768c23.467 0 42.667-19.2 42.667-42.667v-342.613c51.627-38.827 85.333-100.267 85.333-169.387v512c0 70.4-57.6 128-128 128zM896 149.333h-170.667c-70.4 0-128-57.6-128-128v-85.333h85.333v85.333c0 23.467 19.2 42.667 42.667 42.667h170.667c23.467 0 42.667-19.2 42.667-42.667v-85.333h85.333v85.333c0 70.4-57.6 128-128 128zM512 512c-35.413 0-64-28.587-64-64s28.587-64 64-64 64 28.587 64 64-28.587 64-64 64zM810.667 448c70.4 0 128-57.6 128-128s-57.6-128-128-128-128 57.6-128 128 57.6 128 128 128z" />
<glyph unicode="&#xe938;" glyph-name="icon-album-collection" d="M896 618.667h-768c-70.4 0-128-57.6-128-128v-554.667h1024v554.667c0 70.4-57.6 128-128 128zM938.667 21.333h-853.333v469.333c0 23.467 19.2 42.667 42.667 42.667h768c23.467 0 42.667-19.2 42.667-42.667v-469.333zM512 448c-169.813 0-341.333-58.453-341.333-170.667s171.52-170.667 341.333-170.667 341.333 58.453 341.333 170.667-171.52 170.667-341.333 170.667zM512 192c-158.72 0-256 55.040-256 85.333s97.28 85.333 256 85.333 256-55.040 256-85.333-97.28-85.333-256-85.333zM576 277.333c0-23.467-28.587-42.667-64-42.667s-64 19.2-64 42.667 28.587 42.667 64 42.667 64-19.2 64-42.667zM1024 832v-1.28c-35.84 26.88-79.787 43.947-128 43.947h-768c-48.213 0-92.16-16.64-128-43.947v1.28c0 70.4 57.6 128 128 128h768c70.4 0 128-57.6 128-128zM1024 661.333v-1.28c-35.84 26.88-79.787 43.947-128 43.947h-768c-48.213 0-92.16-16.64-128-43.947v1.28c0 70.4 57.6 128 128 128h768c70.4 0 128-57.6 128-128z" />
<glyph unicode="&#xe939;" glyph-name="icon-algorithm" d="M384 490.667c0-82.347 66.987-149.333 149.333-149.333s149.333 66.987 149.333 149.333-66.987 149.333-149.333 149.333-149.333-66.987-149.333-149.333zM597.333 490.667c0-35.285-28.715-64-64-64s-64 28.715-64 64 28.715 64 64 64 64-28.715 64-64zM1002.667 209.664l-140.501 140.501-60.331-60.331 97.835-97.835h-603.179c-9.429 65.152-60.715 116.395-125.824 125.824v345.685c65.152 9.429 116.395 60.715 125.824 125.824h430.976c10.453-72.192 72.149-128 147.157-128 82.347 0 149.333 66.987 149.333 149.333s-66.987 149.333-149.333 149.333c-59.349 0-110.293-35.072-134.357-85.333h-456.576c-24.064 50.261-75.008 85.333-134.357 85.333-82.347 0-149.333-66.987-149.333-149.333 0-59.349 35.072-110.293 85.333-134.357v-371.285c-50.261-24.064-85.333-75.008-85.333-134.357 0-82.347 66.987-149.333 149.333-149.333 59.349 0 110.293 35.072 134.357 85.333h615.979l-97.835-97.835 60.331-60.331 140.501 140.501c33.28 33.28 33.28 87.381 0 120.661zM874.667 874.667c35.285 0 64-28.715 64-64s-28.715-64-64-64-64 28.715-64 64 28.715 64 64 64zM149.333 874.667c35.285 0 64-28.715 64-64s-28.715-64-64-64-64 28.715-64 64 28.715 64 64 64zM149.333 106.667c-35.285 0-64 28.715-64 64s28.715 64 64 64 64-28.715 64-64-28.715-64-64-64z" />
<glyph unicode="&#xe93a;" glyph-name="icon-alicorn" d="M963.84 675.84c-55.040 26.453-95.573 63.147-120.747 109.227l180.907 148.907c-8.533 14.507-7.253 11.947-15.787 26.027l-197.547-68.267v68.267c-61.013 0-111.787-42.24-124.587-99.413-121.6-39.68-165.12-156.16-172.8-237.227-134.827 29.867-265.387 190.72-266.667 192.427l-61.013 75.947-14.507-96.427c-1.28-8.107-18.773-135.68 46.080-272.64-91.307-30.72-217.6-130.987-217.6-373.76h85.333c0 119.467 28.587 202.667 85.333 248.747 1.707-68.267 27.733-142.080 48.64-202.24 6.4-17.92 11.947-34.56 17.067-49.92l-29.013-209.92h257.28l21.333 170.667h69.12v-170.667h256v230.4l16.213 77.227c17.92 62.293 26.453 103.253 26.453 166.4v86.187l170.667 21.333v62.72c0 40.96-23.467 78.507-60.16 96zM768 571.307v-161.28c0-53.333-7.253-87.040-23.467-145.493l-17.92-84.48-0.853-158.293h-85.333v170.667h-229.547l-21.333-170.667h-84.053l18.347 131.413s-15.36 49.067-23.467 71.68c-20.48 58.88-43.947 125.867-43.947 181.333 0 13.227 2.987 26.453 8.96 37.973 37.12-50.773 88.32-99.84 158.293-141.653l43.947 72.96c-148.907 89.173-195.413 216.747-208.64 305.493 70.827-65.707 181.76-146.773 296.533-146.773h42.667v64c0 18.347 5.547 171.093 151.467 190.293 30.293-81.92 90.88-146.773 178.347-188.587 3.413-1.707 5.973-3.84 8.107-6.827l-166.827-20.907z" />
<glyph unicode="&#xe93b;" glyph-name="icon-alien" d="M512-62.165l-23.040 14.763c-16.469 10.581-403.627 262.4-403.627 580.736 0 235.264 191.403 426.667 426.667 426.667s426.667-191.403 426.667-426.667c0-318.336-387.157-570.155-403.627-580.736l-23.040-14.763zM512 874.667c-188.203 0-341.333-153.131-341.333-341.333 0-231.125 261.248-435.712 341.333-493.013 80.085 57.301 341.333 261.888 341.333 493.013 0 188.203-153.131 341.333-341.333 341.333zM767.147 617.813s-116.395 10.581-169.301-42.325-42.325-169.301-42.325-169.301c0 0 116.395-10.581 169.301 42.325s42.325 169.301 42.325 169.301zM299.179 448.512c52.907-52.907 169.301-42.325 169.301-42.325s10.581 116.395-42.325 169.301-169.301 42.325-169.301 42.325c0 0-10.581-116.395 42.325-169.301z" />
<glyph unicode="&#xe93c;" glyph-name="icon-align-center" d="M0 789.333h1024v-85.333h-1024v85.333zM170.667 576h682.667v-85.333h-682.667v85.333zM170.667 149.333h682.667v-85.333h-682.667v85.333zM0 362.667h1024v-85.333h-1024v85.333z" />
<glyph unicode="&#xe93d;" glyph-name="icon-align-justify" d="M0 789.333h1024v-85.333h-1024v85.333zM0 576h1024v-85.333h-1024v85.333zM0 149.333h1024v-85.333h-1024v85.333zM0 362.667h1024v-85.333h-1024v85.333z" />
<glyph unicode="&#xe93e;" glyph-name="icon-align-left" d="M0 789.333h1024v-85.333h-1024v85.333zM0 576h682.667v-85.333h-682.667v85.333zM0 149.333h682.667v-85.333h-682.667v85.333zM0 362.667h1024v-85.333h-1024v85.333z" />
<glyph unicode="&#xe93f;" glyph-name="icon-align-slash" d="M288.299 490.667h-288.299v85.333h202.965l85.333-85.333zM416.299 362.667h-416.299v-85.333h501.632l-85.333 85.333zM0 778.965v-74.965h74.965l-74.965 74.965zM0 149.333v-85.333h714.965l-85.333 85.333h-629.632zM1024 704v85.333h-793.003l-168.832 168.832-60.331-60.331 960-960 60.331 60.331-65.835 65.835h67.669v85.333h-153.003l-128 128h281.003v85.333h-366.336l-128 128h494.336v85.333h-579.669l-128 128h707.669z" />
<glyph unicode="&#xe940;" glyph-name="icon-ambulance" d="M1024 317.355c0 0.099 0 0.217 0 0.334 0 37.546-8.124 73.195-22.709 105.285l0.65-1.598-118.485 266.624c-27.313 60.167-86.844 101.269-155.981 101.333h-130.142l-32.299 129.28c-6.125 23.988-27.541 41.442-53.035 41.442s-46.91-17.454-52.952-41.064l-0.082-0.379-32.299-129.28h-298.667c-70.692 0-128-57.308-128-128v0-554.667h87.083c-1.043-6.363-1.676-13.744-1.749-21.259l-0.001-0.074c0-82.475 66.859-149.333 149.333-149.333s149.333 66.859 149.333 149.333v0c-0.073 7.59-0.707 14.971-1.861 22.178l0.112-0.845h259.499c-1.043-6.363-1.676-13.744-1.749-21.259l-0.001-0.074c0-82.475 66.859-149.333 149.333-149.333s149.333 66.859 149.333 149.333v0c-0.073 7.59-0.707 14.971-1.861 22.178l0.112-0.845h87.083zM805.461 653.312l72.277-162.645h-195.072v213.333h44.8c0.003 0 0.007 0 0.011 0 34.585 0 64.364-20.575 77.766-50.152l0.217-0.536zM298.667 85.333c0-35.346-28.654-64-64-64s-64 28.654-64 64v0c0.028 7.676 1.482 15.004 4.109 21.745l-0.141-0.412h120.064c2.486-6.329 3.94-13.657 3.968-21.321v-0.012zM853.333 85.333c0-35.346-28.654-64-64-64s-64 28.654-64 64v0c0.028 7.676 1.482 15.004 4.109 21.745l-0.141-0.412h120.064c2.486-6.329 3.94-13.657 3.968-21.321v-0.012zM938.667 192h-853.333v469.333c0 23.564 19.103 42.667 42.667 42.667v0h469.333v-298.667h318.336l8.277-18.645c9.299-20.305 14.72-44.048 14.72-69.057 0-0.097 0-0.194 0-0.291v0.015zM384 490.667h85.333v-85.333h-85.333v-85.333h-85.333v85.333h-85.333v85.333h85.333v85.333h85.333z" />
<glyph unicode="&#xe941;" glyph-name="icon-amp-guitar" d="M192 277.333c-35.328 0-64 28.672-64 64s28.672 64 64 64 64-28.672 64-64-28.672-64-64-64zM298.667 234.667c-35.328 0-64-28.672-64-64s28.672-64 64-64 64 28.672 64 64-28.672 64-64 64zM512 234.667c-35.328 0-64-28.672-64-64s28.672-64 64-64 64 28.672 64 64-28.672 64-64 64zM746.667 234.667c-35.328 0-64-28.672-64-64s28.672-64 64-64 64 28.672 64 64-28.672 64-64 64zM832 405.333c-35.328 0-64-28.672-64-64s28.672-64 64-64 64 28.672 64 64-28.672 64-64 64zM469.333 341.333c0 35.328-28.672 64-64 64s-64-28.672-64-64 28.672-64 64-64 64 28.672 64 64zM618.667 405.333c-35.328 0-64-28.672-64-64s28.672-64 64-64 64 28.672 64 64-28.672 64-64 64zM1024 661.333v-725.333h-1024v725.333c0 70.571 57.429 128 128 128h137.515c39.211 101.803 136.491 170.667 248.149 170.667s208.939-68.864 248.149-170.667h134.229c70.571 0 128-57.429 128-128zM359.893 789.333h307.456c-32.384 51.968-89.6 85.333-153.685 85.333s-121.344-33.365-153.728-85.333zM85.333 661.333v-85.333h853.333v85.333c0 23.509-19.157 42.667-42.667 42.667h-768c-23.509 0-42.667-19.157-42.667-42.667zM938.667 21.333v469.333h-853.333v-469.333h853.333z" />
<glyph unicode="&#xe942;" glyph-name="icon-analyse" d="M962.048-62.379l-265.344 265.344c-76.032-62.379-170.453-96.299-270.037-96.299-235.264 0-426.667 191.403-426.667 426.667s191.403 426.667 426.667 426.667c97.792 0 187.733-33.408 259.755-88.96l-55.808-64.64c-56.96 42.667-127.445 68.267-203.947 68.267-188.203 0-341.333-153.131-341.333-341.333 0-49.792 10.965-97.024 30.251-139.691l222.635 267.179 149.931-149.931 375.296 434.603 64.597-55.808-435.328-504.064-148.736 148.736-181.12-217.344c62.635-76.288 157.653-125.056 263.808-125.056 91.179 0 176.896 35.499 241.365 99.968s99.968 150.187 99.968 241.365c0 12.843-0.853 25.429-2.219 37.888l70.272 81.365c11.051-37.888 17.28-77.867 17.28-119.296 0-99.584-33.92-194.005-96.299-270.037l265.344-265.344-60.331-60.331z" />
<glyph unicode="&#xe943;" glyph-name="icon-analyse-alt" d="M1021.355-0.981l-264.277 264.235c60.245 73.6 96.512 167.552 96.512 269.824 0 235.264-191.403 426.667-426.667 426.667s-426.667-191.403-426.667-426.667 191.403-426.667 426.667-426.667c102.315 0 196.267 36.267 269.824 96.512l264.277-264.235 60.331 60.331zM426.923 191.787c-188.203 0-341.333 153.131-341.333 341.333s153.131 341.291 341.333 341.291 341.333-153.131 341.333-341.333-153.131-341.333-341.333-341.333zM597.333 490.709h42.667v-85.333h-426.667v85.333h42.667v128h85.333v-128h42.667v256h85.333v-256h42.667v170.667h85.333v-170.667z" />
<glyph unicode="&#xe944;" glyph-name="icon-anatomical-heart" d="M936.576 746.453c-50.859 0-96.64-3.328-137.856-9.045-5.291 16.811-12.629 33.877-23.211 50.347l70.613 105.941-70.997 47.317-62.933-94.379c-21.248 11.989-45.141 20.523-72.235 24.576v88.789h-85.333v-88.576c-30.421-4.395-57.856-13.568-82.859-25.515l-61.568 97.579-72.149-45.483 62.123-98.517c-55.979-47.701-91.136-106.411-107.989-139.477-34.389 234.112-206.549 295.083-214.699 297.813l-27.307-80.853c6.059-2.133 137.899-51.328 159.744-245.205-74.069-42.453-124.629-126.251-124.629-222.549 0-216.491 180.565-403.456 449.408-465.237 23.253-5.333 45.013-8.021 65.493-8.021 25.984 0 49.92 4.309 72.235 12.928 132.779 51.456 202.197 236.373 202.155 392.448 0 100.139-28.16 187.52-51.755 243.157-10.88 25.6-4.821 34.645-2.816 37.589 7.68 11.477 38.784 36.821 164.011 39.040h39.936v85.333h-87.424zM489.643 601.643c-34.773 23.808-69.803 39.808-104.149 49.408 34.645 55.296 104.363 138.283 211.84 138.283 43.563 0 76.245-11.733 97.152-34.859 9.088-10.069 15.531-21.717 20.181-33.536-121.387-30.976-190.251-83.456-225.024-119.296zM641.664 28.459c-23.637-9.088-52.309-9.472-87.893-1.323-225.579 51.84-383.147 208.939-383.147 382.080 0 91.989 66.987 166.784 149.333 166.784 38.443 0 83.157-18.304 128-50.261-3.285-49.536-26.411-160.683-163.797-220.587 13.312-24.576 31.104-48 52.651-69.76 146.731 72.491 191.872 201.088 196.736 285.781l0.213 0.384c0.597 1.024 48.085 77.184 201.088 116.523-5.931-22.229-5.76-51.072 9.429-86.912 20.48-48.384 44.971-124.032 45.013-209.877 0-145.707-63.445-280.192-147.627-312.832z" />
<glyph unicode="&#xe945;" glyph-name="icon-anchor" d="M810.667 448v-85.333h125.653c-22.229-199.125-198.912-322.56-381.653-339.328v339.328h128v85.333h-128v176.085c73.557 18.987 128 85.888 128 165.248 0 94.123-76.544 170.667-170.667 170.667s-170.667-76.544-170.667-170.667c0-79.36 54.485-146.261 128-165.248v-176.085h-128v-85.333h128v-339.328c-182.741 16.768-359.424 140.203-381.653 339.328h125.653v85.333h-213.333v-42.667c0-293.76 260.352-469.333 512-469.333s512 175.573 512 469.333v42.667h-213.333zM426.667 789.333c0 47.061 38.272 85.333 85.333 85.333s85.333-38.272 85.333-85.333-38.272-85.333-85.333-85.333-85.333 38.272-85.333 85.333z" />
<glyph unicode="&#xe946;" glyph-name="icon-angel" d="M512 832c58.923 0 106.667-47.744 106.667-106.667s-47.744-106.667-106.667-106.667-106.667 47.744-106.667 106.667 47.744 106.667 106.667 106.667zM343.765 752.341c4.949 29.867 17.707 57.045 35.968 79.659 0 0 25.557 42.667 132.224 42.667s132.224-42.667 132.224-42.667c18.261-22.613 31.019-49.792 35.968-79.659 28.032 21.632 45.099 48.853 45.099 79.659 0 72.96-91.691 128-213.333 128s-213.333-55.040-213.333-128c0-30.805 17.067-58.027 45.099-79.659zM1024 277.333v-42.667h-85.333v-85.333h-85.333v-111.573l43.051-101.76h-768.768l43.051 101.76v111.573h-85.333v85.333h-85.333v42.667c0 128.299 14.549 426.667 149.333 426.667 146.517 0 261.931-122.539 292.907-158.805 45.269-15.701 94.293-15.701 139.563 0 30.976 36.309 146.389 158.805 292.907 158.805 134.784 0 149.333-298.368 149.333-426.667zM253.995 234.667l112.896 266.709c-34.347 37.035-119.979 117.291-217.557 117.291-26.624-7.296-58.368-138.112-63.317-298.667h84.651v-85.333h83.328zM767.573 21.333l-184.235 435.371c-46.72-11.563-96.043-11.563-142.763 0l-184.235-435.371h511.189zM937.984 320c-4.992 160.555-36.693 291.371-63.317 298.667-97.579 0-183.253-80.256-217.557-117.291l112.896-266.709h83.328v85.333h84.651z" />
<glyph unicode="&#xe947;" glyph-name="icon-angle" d="M725.248 517.333l64.939 55.424c40.149-56.875 72.747-119.125 97.323-185.429l-80.043-29.269c-21.035 56.704-48.427 110.251-82.261 159.275zM672.384 584.405l64.853 55.296c-46.208 52.736-98.603 99.968-156.885 139.349l-41.131-75.563c49.237-34.048 93.781-74.24 133.163-119.125zM853.333 106.667h85.333c0 68.779-9.557 135.211-25.728 199.040l-80.427-29.44c13.141-54.528 20.864-111.104 20.864-169.643zM107.989 21.333c-11.477 0-17.237 7.637-19.157 10.923-1.963 3.285-5.888 11.947-0.384 22.016l469.333 861.739-74.965 40.832-469.333-861.739c-18.347-33.664-17.621-73.429 1.963-106.411 19.584-32.939 54.187-52.651 92.544-52.651h916.011v85.333h-916.011z" />
<glyph unicode="&#xe948;" glyph-name="icon-angle-90" d="M794.197 383.317c-28.459 63.915-66.603 122.453-112.341 174.251l60.331 60.331c54.4-60.757 99.627-129.792 132.651-205.525l-80.64-29.013zM681.856 678.229c-60.757 54.4-129.749 99.627-205.525 132.651l-29.013-80.64c63.915-28.459 122.453-66.603 174.251-112.341l60.331 60.331zM853.333 106.709h85.333c0 78.549-11.947 154.325-33.963 225.749l-80.555-29.013c18.816-62.336 29.184-128.341 29.184-196.736zM396.373 840.704c-71.424 22.016-147.2 33.963-225.707 33.963v-85.333c68.395 0 134.357-10.368 196.736-29.184l29.013 80.555zM128 21.333c-23.509 0-42.667 19.115-42.667 42.667v896h-85.333v-896c0-70.571 57.429-128 128-128h896v85.333h-896z" />
<glyph unicode="&#xe949;" glyph-name="icon-angle-circle-down" d="M512-64c-282.77 0-512 229.23-512 512s229.23 512 512 512c282.77 0 512-229.23 512-512v0c-0.316-282.643-229.358-511.685-511.97-512h-0.030zM512 874.667c-235.641 0-426.667-191.025-426.667-426.667s191.025-426.667 426.667-426.667c235.641 0 426.667 191.025 426.667 426.667v0c-0.267 235.534-191.133 426.4-426.641 426.667h-0.025zM572.331 302.336l201.045 201.131-60.331 60.203-201.045-201.003-199.381 199.381-60.331-60.331 199.381-199.381c15.441-15.437 36.771-24.984 60.331-24.984s44.889 9.548 60.331 24.985v0z" />
<glyph unicode="&#xe94a;" glyph-name="icon-angle-circle-left" d="M0 448c0 282.77 229.23 512 512 512s512-229.23 512-512c0-282.77-229.23-512-512-512v0c-282.643 0.316-511.685 229.358-512 511.97v0.030zM938.667 448c0 235.641-191.025 426.667-426.667 426.667s-426.667-191.025-426.667-426.667c0-235.641 191.025-426.667 426.667-426.667v0c235.534 0.267 426.4 191.133 426.667 426.641v0.025zM366.336 387.669l201.131-201.045 60.331 60.331-201.131 201.045 199.381 199.381-60.331 60.331-199.381-199.381c-15.437-15.441-24.984-36.771-24.984-60.331s9.548-44.889 24.985-60.331v0z" />
<glyph unicode="&#xe94b;" glyph-name="icon-angle-circle-right" d="M1024 448c0-282.77-229.23-512-512-512s-512 229.23-512 512c0 282.77 229.23 512 512 512v0c282.643-0.316 511.685-229.358 512-511.97v-0.030zM85.333 448c0-235.641 191.025-426.667 426.667-426.667s426.667 191.025 426.667 426.667c0 235.641-191.025 426.667-426.667 426.667v0c-235.534-0.267-426.4-191.133-426.667-426.641v-0.025zM657.664 508.331l-201.131 201.045-60.203-60.331 201.003-201.045-199.381-199.381 60.331-60.331 199.381 199.381c15.437 15.441 24.984 36.771 24.984 60.331s-9.548 44.889-24.985 60.331v0z" />
<glyph unicode="&#xe94c;" glyph-name="icon-angle-circle-up" d="M512 960c282.77 0 512-229.23 512-512s-229.23-512-512-512c-282.77 0-512 229.23-512 512v0c0.316 282.643 229.358 511.685 511.97 512h0.030zM512 21.333c235.641 0 426.667 191.025 426.667 426.667s-191.025 426.667-426.667 426.667c-235.641 0-426.667-191.025-426.667-426.667v0c0.267-235.534 191.133-426.4 426.641-426.667h0.025zM451.669 593.664l-201.045-201.131 60.331-60.331 201.045 201.131 199.381-199.381 60.331 60.331-199.381 199.381c-15.441 15.437-36.771 24.984-60.331 24.984s-44.889-9.548-60.331-24.985v0z" />
<glyph unicode="&#xe94d;" glyph-name="icon-angle-double-left" d="M133.163 478.165l422.059 422.101-60.288 60.288-422.101-422.059c-23.155-23.162-37.477-55.157-37.477-90.496s14.321-67.334 37.477-90.496l421.76-421.76 60.331 60.331-421.717 421.76c-7.731 7.723-12.514 18.396-12.514 30.187 0 11.769 4.765 22.425 12.471 30.145l-0.001-0.001zM981.333 899.541l-60.459 60.459-481.707-481.707c-7.718-7.721-12.492-18.386-12.492-30.165s4.774-22.445 12.492-30.165l481.749-481.963 60.416 60.416-451.669 451.584z" />
<glyph unicode="&#xe94e;" glyph-name="icon-angle-double-right" d="M943.829 538.496l-421.333 421.504-60.331-60.501 421.333-421.333c7.718-7.721 12.492-18.386 12.492-30.165s-4.774-22.445-12.492-30.165l-421.888-422.101 60.331-60.331 421.888 421.888c23.155 23.162 37.477 55.157 37.477 90.496s-14.321 67.334-37.477 90.496v0zM577.493 478.165l-480.981 481.024-60.373-60.331 450.859-450.859-451.328-451.328 60.331-60.373 481.493 481.536c7.718 7.721 12.492 18.386 12.492 30.165s-4.774 22.445-12.492 30.165v0z" />
<glyph unicode="&#xe94f;" glyph-name="icon-angle-double-small-down" d="M512 106.667c-22.784 0-44.203 8.875-60.331 25.003l-225.323 225.323 60.331 60.331 225.323-225.323 225.323 225.323 60.331-60.331-225.323-225.323c-16.128-16.128-37.547-25.003-60.331-25.003zM547.2 405.376l250.496 250.496-60.331 60.331-225.323-225.365-225.365 225.365-60.331-60.331 250.581-250.624c9.685-9.6 22.315-14.379 35.029-14.379s25.515 4.821 35.243 14.507z" />
<glyph unicode="&#xe950;" glyph-name="icon-angle-double-small-left" d="M477.397 673.835l-60.331 60.331-225.835-225.835c-15.437-15.441-24.984-36.771-24.984-60.331s9.548-44.889 24.985-60.331l225.834-225.834 60.331 60.331-225.664 225.835zM776.064 673.835l-60.331 60.331-256-256c-7.718-7.721-12.492-18.386-12.492-30.165s4.774-22.445 12.492-30.165l256-256 60.331 60.331-225.664 225.835z" />
<glyph unicode="&#xe951;" glyph-name="icon-angle-double-small-right" d="M814.933 508.331l-225.664 225.835-60.203-60.331 225.664-225.835-225.664-225.835 60.373-60.331 225.493 225.835c15.437 15.441 24.984 36.771 24.984 60.331s-9.548 44.889-24.985 60.331v0zM546.603 478.165l-256 256-60.203-60.331 225.664-225.835-225.664-225.835 60.373-60.331 256 256c7.668 7.712 12.407 18.343 12.407 30.080 0 11.822-4.808 22.522-12.576 30.249l-0.002 0.002z" />
<glyph unicode="&#xe952;" glyph-name="icon-angle-double-small-up" d="M737.323 478.677l-225.323 225.323-225.323-225.323-60.331 60.331 225.323 225.323c32.256 32.256 88.405 32.256 120.661 0l225.323-225.323-60.331-60.331zM797.653 240.128l-250.496 250.496c-19.413 19.413-50.901 19.413-70.315 0l-250.496-250.496 60.331-60.331 225.323 225.323 225.323-225.323 60.331 60.331z" />
<glyph unicode="&#xe953;" glyph-name="icon-angle-down" d="M963.669 707.029l-421.504-421.504c-7.815-7.509-18.45-12.134-30.165-12.134s-22.351 4.625-30.18 12.148l0.015-0.014-421.248 421.291-60.331-60.331 421.248-421.291c23.497-22.426 55.396-36.226 90.517-36.226s67.020 13.8 90.569 36.275l-0.051-0.049 421.461 421.504z" />
<glyph unicode="&#xe954;" glyph-name="icon-angle-left" d="M714.752-63.744l-421.248 421.248c-23.155 23.162-37.477 55.157-37.477 90.496s14.321 67.334 37.477 90.496l420.992 420.992 60.331-60.331-420.992-420.992c-7.718-7.721-12.492-18.386-12.492-30.165s4.774-22.445 12.492-30.165l421.248-421.248z" />
<glyph unicode="&#xe955;" glyph-name="icon-angle-right" d="M316.245-64l-60.245 60.245 421.589 421.589c7.718 7.721 12.492 18.386 12.492 30.165s-4.774 22.445-12.492 30.165l-420.864 420.779 60.331 60.331 420.779-420.779c23.155-23.162 37.477-55.157 37.477-90.496s-14.321-67.334-37.477-90.496v0z" />
<glyph unicode="&#xe956;" glyph-name="icon-angle-small-down" d="M512 298.667c-0.044 0-0.096 0-0.148 0-23.509 0-44.789 9.54-60.181 24.959l-225.836 225.878 60.331 60.331 225.835-225.835 225.835 225.835 60.331-60.331-225.835-225.835c-15.398-15.446-36.695-25.003-60.225-25.003-0.037 0-0.074 0-0.111 0h0.006z" />
<glyph unicode="&#xe957;" glyph-name="icon-angle-small-left" d="M587.733 161.835l-225.835 225.835c-15.437 15.441-24.984 36.771-24.984 60.331s9.548 44.889 24.985 60.331l225.834 225.834 60.331-60.331-225.664-225.835 225.835-225.835z" />
<glyph unicode="&#xe958;" glyph-name="icon-angle-small-right" d="M461.269 161.835l-60.203 60.331 225.664 225.835-225.664 225.835 60.373 60.331 225.493-225.835c15.437-15.441 24.984-36.771 24.984-60.331s-9.548-44.889-24.985-60.331v0z" />
<glyph unicode="&#xe959;" glyph-name="icon-angle-small-up" d="M737.835 311.168l-225.835 225.835-225.835-225.835-60.331 60.331 225.835 225.835c15.441 15.437 36.771 24.984 60.331 24.984s44.889-9.548 60.331-24.985l225.834-225.834z" />
<glyph unicode="&#xe95a;" glyph-name="icon-angle-square-down" d="M512 277.333c-0.044 0-0.096 0-0.148 0-23.509 0-44.789 9.54-60.181 24.959l-199.382 199.425 60.331 60.331 199.381-199.381 201.045 201.003 60.331-60.203-201.045-201.003c-15.405-15.517-36.745-25.124-60.329-25.131h-0.001zM1024 832c0 70.692-57.308 128-128 128v0h-768c-70.692 0-128-57.308-128-128v0-896h1024zM85.333 832c0 23.564 19.103 42.667 42.667 42.667v0h768c23.564 0 42.667-19.103 42.667-42.667v0-810.667h-853.333z" />
<glyph unicode="&#xe95b;" glyph-name="icon-angle-square-left" d="M1024 832c0 70.692-57.308 128-128 128v0h-768c-70.692 0-128-57.308-128-128v0-896h1024zM85.333 832c0 23.564 19.103 42.667 42.667 42.667v0h768c23.564 0 42.667-19.103 42.667-42.667v0-810.667h-853.333zM341.547 448.853c0 0.007 0 0.016 0 0.024 0 23.547 9.538 44.867 24.961 60.307l199.38 199.338 60.331-60.331-199.552-199.339 201.045-201.045-60.245-60.331-200.96 200.789c-15.423 15.439-24.96 36.759-24.96 60.307 0 0.098 0 0.197 0 0.295v-0.015z" />
<glyph unicode="&#xe95c;" glyph-name="icon-angle-square-right" d="M1024 832c0 70.692-57.308 128-128 128v0h-768c-70.692 0-128-57.308-128-128v0-896h1024zM85.333 832c0 23.564 19.103 42.667 42.667 42.667v0h768c23.564 0 42.667-19.103 42.667-42.667v0-810.667h-853.333zM615.723 388.267l-201.045-200.789-60.331 60.331 201.045 201.045-199.381 199.339 60.331 60.331 199.381-199.339c15.45-15.444 25.006-36.782 25.006-60.352s-9.556-44.908-25.005-60.352v0z" />
<glyph unicode="&#xe95d;" glyph-name="icon-angle-square-up" d="M1024 832c0 70.692-57.308 128-128 128v0h-768c-70.692 0-128-57.308-128-128v0-896h1024zM85.333 832c0 23.564 19.103 42.667 42.667 42.667v0h768c23.564 0 42.667-19.103 42.667-42.667v0-810.667h-853.333zM572.331 550.869l201.045-201.003-60.331-60.331-201.045 201.131-199.381-199.509-60.331 60.331 199.381 199.381c15.441 15.437 36.771 24.984 60.331 24.984s44.889-9.548 60.331-24.985v0z" />
<glyph unicode="&#xe95e;" glyph-name="icon-angles-up-down" d="M139.563 529.237l-59.648 61.056 339.243 331.648c24.491 24.448 57.515 38.059 92.672 38.059h0.256c35.029-0.043 68.011-13.696 92.843-38.357l339.2-331.349-59.648-61.056-339.456 331.605c-9.003 8.96-20.651 13.781-33.067 13.824h-0.085c-12.373 0-23.979-4.779-32.725-13.44l-339.584-331.989zM544.811 34.944c-8.789-8.747-20.437-13.525-32.896-13.568h-0.085c-12.373 0-23.979 4.779-32.981 13.739l-339.285 331.648-59.648-61.013 338.987-331.392c24.789-24.747 57.771-38.357 92.971-38.357h0.256c34.987 0.085 67.968 13.653 92.587 38.144l339.456 331.605-59.648 61.013-339.669-331.819z" />
<glyph unicode="&#xe95f;" glyph-name="icon-angle-up" d="M963.669 185.685l-421.504 421.504c-7.815 7.509-18.45 12.134-30.165 12.134s-22.351-4.625-30.18-12.148l0.015 0.014-421.248-421.248-60.331 60.331 421.248 421.248c23.489 22.445 55.39 36.259 90.517 36.259s67.029-13.814 90.567-36.306l-0.050 0.047 421.461-421.504z" />
<glyph unicode="&#xe960;" glyph-name="icon-angry" d="M512 362.667c92.939-4.812 176.746-40.378 242.289-96.623l-0.54 0.452-56.747-63.744c-50.021 42.331-113.913 69.703-184.007 74.526l-0.996 0.055c-71.089-4.878-134.982-32.25-185.473-74.969l0.471 0.388-56.747 63.744c65.003 55.792 148.81 91.358 240.764 96.13l0.986 0.041zM1024 448c0-282.77-229.23-512-512-512s-512 229.23-512 512c0 282.77 229.23 512 512 512v0c282.643-0.316 511.685-229.358 512-511.97v-0.030zM938.667 448c0 235.641-191.025 426.667-426.667 426.667s-426.667-191.025-426.667-426.667c0-235.641 191.025-426.667 426.667-426.667v0c235.534 0.267 426.4 191.133 426.667 426.641v0.025zM597.333 513.664v0-1.664c0-0.006 0-0.013 0-0.020 0-35.346 28.654-64 64-64s64 28.654 64 64c0 18.315-7.693 34.832-20.024 46.498l-0.030 0.028c15.717 11.074 35.261 17.699 56.353 17.699 2.24 0 4.463-0.075 6.666-0.222l-0.299 0.016v85.333c-139.989 0-170.667-106.667-170.667-147.669zM298.667 512c0-35.346 28.654-64 64-64s64 28.654 64 64v0 1.664c0 41.003-30.677 147.669-170.667 147.669v-85.333c1.926 0.134 4.175 0.21 6.441 0.21 21.090 0 40.636-6.61 56.68-17.871l-0.316 0.21c-12.408-11.638-20.139-28.137-20.139-46.441 0-0.038 0-0.077 0-0.115v0.006z" />
<glyph unicode="&#xe961;" glyph-name="icon-animated-icon" d="M85.333 661.333h-85.333v170.667c0 70.4 57.6 128 128 128h170.667v-85.333h-170.667c-23.467 0-42.667-19.2-42.667-42.667v-170.667zM85.333 64v170.667h-85.333v-170.667c0-70.4 57.6-128 128-128h170.667v85.333h-170.667c-23.467 0-42.667 19.2-42.667 42.667zM938.667 64c0-23.467-19.2-42.667-42.667-42.667h-170.667v-85.333h170.667c70.4 0 128 57.6 128 128v170.667h-85.333v-170.667zM768 494.080v39.253h-184.747l-50.347 192h-41.387l-50.347-192h-185.173v-39.253l141.653-78.933-55.467-174.080 30.72-23.040 139.52 107.947 139.093-107.52 32 22.187-56.747 171.947 140.8 81.493zM725.333 960v-341.333l298.667 170.667-298.667 170.667z" />
<glyph unicode="&#xe962;" glyph-name="icon-ankh" d="M810.667 362.667h-194.432c65.621 88.875 151.765 227.243 151.765 341.333 0 141.184-114.816 256-256 256s-256-114.816-256-256c0-114.091 86.187-252.459 151.765-341.333h-194.432v-85.333h256v-341.333h85.333v341.333h256v85.333zM512 874.667c94.123 0 170.667-76.544 170.667-170.667 0-103.467-104.363-254.805-170.667-336.981-66.347 82.091-170.667 233.301-170.667 336.981 0 94.123 76.544 170.667 170.667 170.667z" />
<glyph unicode="&#xe963;" glyph-name="icon-answer" d="M896 960h-768c-70.571 0-128-57.429-128-128v-725.333h295.381l159.957-134.656c16.299-14.507 36.736-21.717 57.045-21.675 19.968 0 39.723 6.912 55.125 20.651l164.139 135.68h292.395v725.333c0 70.571-57.429 128-128 128zM938.667 192h-237.696l-189.781-155.52-184.619 155.52h-241.237v640c0 23.552 19.115 42.667 42.667 42.667h768c23.552 0 42.667-19.115 42.667-42.667v-640zM549.376 781.653c-56.021 23.467-113.109-9.429-125.312-62.208l-104.064-442.112h87.595l30.123 128h148.523l30.123-128h87.595l-103.339 439.083c-6.571 28.245-24.533 54.016-51.285 65.195zM457.856 490.667l49.323 209.493c0.512 2.261 2.517 3.84 4.821 3.84s4.309-1.579 4.821-3.84l49.323-209.493h-108.331z" />
<glyph unicode="&#xe964;" glyph-name="icon-answer-alt" d="M597.333 405.333h170.667v-85.333h-170.667v85.333zM429.995 716.416l103.339-439.083h-87.595l-30.123 128h-148.523l-30.123-128h-87.595l104.064 442.112c12.245 52.779 69.333 85.675 125.312 62.208 26.752-11.221 44.757-36.949 51.285-65.195zM395.477 490.667l-49.323 209.493c-0.512 2.261-2.517 3.84-4.821 3.84s-4.309-1.579-4.821-3.84l-49.323-209.493h108.331zM1024 832v-725.333h-292.395l-164.096-135.68c-15.445-13.739-35.2-20.693-55.125-20.693-20.309 0-40.789 7.211-57.088 21.717l-159.915 134.656h-295.381v725.333c0 70.571 57.429 128 128 128h768c70.571 0 128-57.429 128-128zM938.667 832c0 23.552-19.115 42.667-42.667 42.667h-768c-23.509 0-42.667-19.115-42.667-42.667v-640h241.237l184.576-155.52 189.824 155.52h237.696v640zM597.333 490.667h256v85.333h-256v-85.333zM597.333 661.333h256v85.333h-256v-85.333z" />
<glyph unicode="&#xe965;" glyph-name="icon-apartment" d="M469.333 320h-85.333v85.333h85.333v-85.333zM640 405.333h-85.333v-85.333h85.333v85.333zM469.333 234.667h-85.333v-85.333h85.333v85.333zM640 234.667h-85.333v-85.333h85.333v85.333zM469.333 746.667h-85.333v-85.333h85.333v85.333zM640 746.667h-85.333v-85.333h85.333v85.333zM469.333 576h-85.333v-85.333h85.333v85.333zM640 576h-85.333v-85.333h85.333v85.333zM1024 618.667c0 70.571-57.429 128-128 128h-85.333v85.333c0 70.571-57.429 128-128 128h-341.333c-70.571 0-128-57.429-128-128v-256h-85.333c-70.571 0-128-57.429-128-128v-512h1024v682.667zM85.333 448c0 23.552 19.157 42.667 42.667 42.667h170.667v341.333c0 23.552 19.157 42.667 42.667 42.667h341.333c23.509 0 42.667-19.115 42.667-42.667v-170.667h170.667c23.509 0 42.667-19.115 42.667-42.667v-597.333h-853.333v426.667zM853.333 405.333h-85.333v-85.333h85.333v85.333zM853.333 234.667h-85.333v-85.333h85.333v85.333zM256 405.333h-85.333v-85.333h85.333v85.333zM256 234.667h-85.333v-85.333h85.333v85.333zM853.333 576h-85.333v-85.333h85.333v85.333z" />
<glyph unicode="&#xe966;" glyph-name="icon-aperture" d="M512 960c-282.752 0-512-229.248-512-512s229.248-512 512-512 512 229.248 512 512-229.248 512-512 512zM572.117 870.4c114.475-16.213 214.485-77.995 281.003-166.4h-382.421s101.419 166.4 101.419 166.4zM605.525 618.709l103.808-170.88-103.936-170.496h-188.8l-98.901 175.701 101.035 165.717h186.795zM473.771 872.875l-204.032-334.677-95.616 169.899c70.741 91.691 177.92 153.899 299.648 164.779zM121.003 277.333c-22.912 52.309-35.669 109.995-35.669 170.667 0 62.805 13.653 122.453 38.101 176.213l195.243-346.88h-197.675zM451.883 25.6c-114.475 16.213-214.485 78.037-281.003 166.4h382.464l-101.461-166.4zM550.272 23.083l208.896 342.656 100.267-165.077c-70.443-98.688-181.845-166.187-309.163-177.579zM705.323 618.709h197.675c22.912-52.309 35.669-110.037 35.669-170.709 0-57.045-11.264-111.488-31.659-161.28l-201.643 331.947z" />
<glyph unicode="&#xe967;" glyph-name="icon-api" d="M896 448c0 23.040-2.133 46.080-6.4 69.547l130.133 74.667-127.573 221.867-130.133-74.667c-35.84 30.72-77.227 54.613-122.027 70.4v150.187h-256v-150.187c-44.8-15.787-86.187-39.68-122.027-70.4l-130.133 74.667-127.573-221.867 130.133-74.667c-4.267-23.040-6.4-46.507-6.4-69.547s2.133-46.080 6.4-69.547l-130.133-74.667 127.573-221.867 130.133 74.667c35.84-30.72 77.227-54.613 122.027-70.4v-150.187h256v150.187c44.8 15.787 86.187 39.68 122.027 70.4l130.133-74.667 127.573 221.867-130.133 74.667c4.267 23.040 6.4 46.507 6.4 69.547zM903.253 272.213l-42.667-73.813-112.213 64.427-23.040-23.467c-37.973-38.827-85.76-66.56-138.667-80.213l-32-8.107v-129.707h-85.333v129.707l-32 8.107c-52.907 13.653-100.693 41.387-138.667 80.213l-23.040 23.467-112.213-64.427-42.667 73.813 112.213 64.427-8.96 32c-7.253 26.453-11.093 53.333-11.093 79.36s3.84 52.48 11.093 79.36l8.96 32-112.213 64.427 42.667 73.813 112.213-64.427 23.040 23.467c37.973 38.827 85.76 66.56 138.667 80.213l32 8.107v129.707h85.333v-129.707l32-8.107c52.907-13.653 100.693-41.387 138.667-80.213l23.040-23.467 112.213 64.427 42.667-73.813-112.213-64.427 8.96-32c7.253-26.453 11.093-53.333 11.093-79.36s-3.84-52.48-11.093-79.36l-8.96-32 112.213-64.427zM512.853 669.867l83.627-16.64-85.333-426.667-83.627 16.64 85.333 426.667zM414.293 518.827l-72.96-72.96 72.96-72.107-60.16-60.16-72.96 72.96c-33.28 33.28-33.28 87.040 0 119.893l72.96 72.96 60.16-60.16zM743.253 506.027c33.28-33.28 33.28-87.040 0-119.893l-72.96-72.96-60.16 60.16 72.96 72.96-72.96 72.533 60.16 60.16 72.96-72.96z" />
<glyph unicode="&#xe968;" glyph-name="icon-apple-books" d="M1024 169.301v65.237h-213.163c52.48 54.272 85.163 129.792 85.163 213.333 0 161.749-122.368 293.589-274.389 298.325 28.245 6.912 59.179 19.669 83.925 44.032 61.013 60.032 62.464 169.344 62.464 169.344s-102.869 7.509-163.883-52.523c-32.683-32.171-47.275-78.037-53.888-113.835-10.24 74.965-36.992 134.571-54.571 166.741l-74.923-40.832c13.867-25.387 44.757-91.349 47.957-172.501h-57.941c-155.947 0-282.795-134.059-282.795-298.795 0-83.541 32.683-159.061 85.163-213.333h-63.829c-82.347 0-149.333-66.987-149.333-149.333s66.987-149.333 149.333-149.333h874.667l-0.299 65.024-12.544 12.544c-0.299 0.299-29.824 30.165-29.824 71.765s29.525 71.467 29.525 71.509l13.141 12.587zM410.795 661.333h202.411c108.885 0 197.461-95.744 197.461-213.461s-83.669-212.523-192-213.205c-30.677 0.341-58.027 8.149-85.717 23.808l-20.949 11.819-20.949-11.819c-27.691-15.616-55.040-23.467-85.717-23.808-108.331 0.683-192 95.915-192 213.205s88.576 213.461 197.461 213.461zM907.776 21.205h-758.443c-35.285 0-64 28.715-64 64s28.715 64 64 64h758.443c-6.912-18.347-11.776-39.851-11.776-64s4.864-45.653 11.776-64z" />
<glyph unicode="&#xe969;" glyph-name="icon-apple-core" d="M768 320c0 94.976 40.832 182.187 112.043 239.275l41.429 33.237-41.387 33.28c-43.435 34.901-92.587 58.283-144.64 69.803 0.043 0.043 0.085 0.085 0.128 0.128 84.011 84.053 75.008 218.667 74.581 224.384l-2.688 36.651-36.651 2.688c-5.717 0.469-140.331 9.472-224.384-74.581-9.344-9.344-17.408-19.413-24.619-29.781-14.677 43.52-31.403 78.933-44.331 102.656l-74.923-40.832c17.664-32.384 55.808-112.427 64.811-212.907h-104.661c-79.445 0-155.093-27.051-218.709-78.165l-41.429-33.28 41.472-33.237c71.168-57.088 112-144.341 112-239.275s-40.832-182.229-112-239.275l-41.472-33.237 41.429-33.28c63.659-51.115 139.264-78.165 218.709-78.165 51.371 0 102.528 11.733 149.333 34.133 46.763-22.357 97.92-34.133 149.333-34.133 79.445 0 155.136 27.051 218.752 78.165l41.387 33.28-41.429 33.237c-71.211 57.131-112.043 144.341-112.043 239.275zM606.763 824.576c33.28 33.237 82.261 44.629 116.821 48.341-3.712-34.603-15.104-83.541-48.341-116.821-33.323-33.28-82.944-45.397-118.229-49.749 4.352 35.285 16.469 84.907 49.749 118.229zM532.992 55.381l-20.992 11.819-20.949-11.819c-78.592-44.288-174.080-44.8-252.117-2.432 65.664 71.168 102.4 165.803 102.4 267.051s-36.736 195.883-102.4 267.051c38.272 20.779 80.299 31.616 123.733 31.616h298.667c43.477 0 85.461-10.837 123.691-31.616-65.621-71.168-102.357-165.803-102.357-267.051s36.736-195.883 102.357-267.051c-78.037-42.368-173.611-41.856-252.075 2.432z" />
<glyph unicode="&#xe96a;" glyph-name="icon-apple-crate" d="M964.693 533.333c11.093 26.453 16.64 55.467 16.64 84.907 0 108.8-78.080 198.827-178.347 211.627 3.84 2.987 7.68 5.973 11.093 9.813 44.8 44.8 39.253 120.32 39.253 120.32s-75.093 5.547-119.893-39.253c-2.56-2.56-5.12-5.547-7.68-8.533-6.827 18.773-14.507 34.133-20.48 45.227l-75.093-40.96c7.253-13.653 22.613-44.8 28.16-84.907h-29.44c-42.667 0-83.2-13.653-117.333-39.253-26.88 20.053-58.453 33.28-92.587 37.973 3.84 2.987 7.68 5.973 11.093 9.813 44.8 44.373 39.253 119.893 39.253 119.893s-75.093 5.547-119.893-39.253c-2.56-2.56-5.12-5.547-7.68-8.533-6.827 18.773-14.507 34.133-20.48 45.227l-75.093-40.96c7.253-13.653 22.613-44.8 28.16-84.907h-29.44c-111.36 0-202.24-95.573-202.24-213.333 0-29.44 5.973-58.453 17.067-84.907h-59.733v-469.333c0-70.4 57.6-128 128-128h768c70.4 0 128 57.6 128 128v469.333h-59.307zM778.667 746.24c64.853 0 117.333-57.6 117.333-128 0-31.573-10.667-61.44-29.867-84.907h-285.867c11.093 26.453 17.067 55.467 17.067 84.907 0 40.107-10.667 77.653-28.587 109.653 18.347 11.947 39.253 18.347 60.587 18.347h149.333zM128 618.24c0 70.4 52.48 128 117.333 128h149.333c64.853 0 117.333-57.6 117.333-128 0-31.573-10.667-61.867-29.867-84.907h-324.267c-19.2 23.467-29.867 53.76-29.867 84.907zM938.667 64c0-23.467-19.2-42.667-42.667-42.667h-768c-23.467 0-42.667 19.2-42.667 42.667v42.667h768v85.333h-768v85.333h768v85.333h-768v85.333h853.333v-384z" />
<glyph unicode="&#xe96b;" glyph-name="icon-apple-whole" d="M735.659 695.808c46.74 54.584 75.188 126.038 75.188 204.136 0 7.109-0.236 14.163-0.7 21.154l0.050-0.949-2.731 36.651-36.651 2.731c-6.092 0.421-13.203 0.661-20.37 0.661-78.075 0-149.496-28.489-204.434-75.638l0.42 0.352c-8.848-8.965-16.941-18.724-24.145-29.143l-0.473-0.724c-13.472 39.937-28.472 73.884-46.097 106.193l1.724-3.452-74.88-40.875c33.744-61.618 56.791-133.807 64.571-210.509l0.197-2.398h-104.661c-201.704-6.357-362.799-171.393-362.799-374.055 0-3.497 0.048-6.983 0.143-10.457l-0.011 0.512c-4.565-270.123 273.792-467.328 512-349.867 238.251-117.419 516.565 79.744 512 349.867 0.044 2.148 0.069 4.681 0.069 7.22 0 177.294-121.503 326.21-285.782 368.022l-2.627 0.567zM606.763 824.576c31.271 27.548 71.72 45.348 116.228 48.31l0.593 0.032c-2.994-45.101-20.793-85.55-48.528-117.037l0.187 0.216c-31.745-27.848-72.566-46.057-117.504-49.702l-0.725-0.047c3.692 45.663 21.901 86.484 49.949 118.462l-0.2-0.232zM661.333 21.333c-47.237 0.009-91.513 12.677-129.623 34.797l1.239-0.664-20.949 11.776-20.949-11.861c-183.851-106.581-409.685 48.683-405.717 264.619-0.109 2.968-0.172 6.454-0.172 9.954 0 155.555 122.925 282.4 276.934 288.694l0.57 0.019h298.667c366.933-13.696 366.933-583.765 0-597.333z" />
<glyph unicode="&#xe96c;" glyph-name="icon-app-notification" d="M256.811 361.301c-27.136 0-54.272-16.555-60.331-49.451l-47.147-205.184h52.352l10.325 42.667h86.827l9.6-42.667h55.125l-46.293 203.733c-5.717 34.005-33.067 50.901-60.459 50.901zM224.896 202.667l23.552 97.237c-1.621 10.069 17.963 10.709 16.427 0.171l21.931-97.408h-61.909zM671.957 193.28h30.592c46.763 0 84.693 37.931 84.693 84.693s-37.931 84.693-84.693 84.693h-83.925v-256h53.333v86.613zM672.043 309.333h30.549c17.323 0 31.36-14.037 31.36-31.36s-14.037-31.36-31.36-31.36l-30.507-0.128v62.848zM489.216 362.667h-83.925v-256h53.333v86.613h30.592c46.763 0 84.693 37.931 84.693 84.693s-37.931 84.693-84.693 84.693zM489.216 246.613l-30.507-0.128v62.848h30.549c17.323 0 31.36-14.037 31.36-31.36s-14.037-31.36-31.36-31.36zM853.333 960c-94.123 0-170.667-76.544-170.667-170.667s76.544-170.667 170.667-170.667 170.667 76.544 170.667 170.667-76.544 170.667-170.667 170.667zM853.333 704c-47.061 0-85.333 38.272-85.333 85.333s38.272 85.333 85.333 85.333 85.333-38.272 85.333-85.333-38.272-85.333-85.333-85.333zM853.333 533.333c29.952 0 58.624 5.419 85.333 14.891v-612.224h-938.667v810.667c0 70.571 57.429 128 128 128h484.224c-9.472-26.709-14.891-55.381-14.891-85.333h-469.333c-23.552 0-42.667-19.157-42.667-42.667v-725.333h768v512z" />
<glyph unicode="&#xe96d;" glyph-name="icon-apps" d="M469.333 490.667h-469.333v341.333c0 70.692 57.308 128 128 128v0h341.333zM85.333 576h298.667v298.667h-256c-23.564 0-42.667-19.103-42.667-42.667v0zM1024 490.667h-469.333v469.333h341.333c70.692 0 128-57.308 128-128v0zM640 576h298.667v256c0 23.564-19.103 42.667-42.667 42.667v0h-256zM469.333-64h-341.333c-70.692 0-128 57.308-128 128v0 341.333h469.333zM85.333 320v-256c0-23.564 19.103-42.667 42.667-42.667v0h256v298.667zM896-64h-341.333v469.333h469.333v-341.333c0-70.692-57.308-128-128-128v0zM640 21.333h256c23.564 0 42.667 19.103 42.667 42.667v0 256h-298.667z" />
<glyph unicode="&#xe96e;" glyph-name="icon-apps-add" d="M0 832v-341.333h469.333v469.333h-341.333c-70.692 0-128-57.308-128-128v0zM384 576h-298.667v256c0 23.564 19.103 42.667 42.667 42.667v0h256zM0 64c0-70.692 57.308-128 128-128v0h341.333v469.333h-469.333zM85.333 320h298.667v-298.667h-256c-23.564 0-42.667 19.103-42.667 42.667v0zM554.667 405.333v-469.333h341.333c70.692 0 128 57.308 128 128v0 341.333zM938.667 64c0-23.564-19.103-42.667-42.667-42.667v0h-256v298.667h298.667zM725.333 490.667h85.333v170.667h170.667v85.333h-170.667v170.667h-85.333v-170.667h-170.667v-85.333h170.667v-170.667z" />
<glyph unicode="&#xe96f;" glyph-name="icon-apps-delete" d="M0 832v-341.333h469.333v469.333h-341.333c-70.692 0-128-57.308-128-128v0zM384 576h-298.667v256c0 23.564 19.103 42.667 42.667 42.667v0h256zM0 64c0-70.692 57.308-128 128-128v0h341.333v469.333h-469.333zM85.333 320h298.667v-298.667h-256c-23.564 0-42.667 19.103-42.667 42.667v0zM554.667 405.333v-469.333h341.333c70.692 0 128 57.308 128 128v0 341.333zM938.667 64c0-23.564-19.103-42.667-42.667-42.667v0h-256v298.667h298.667zM554.667 746.667h426.667v-85.333h-426.667v85.333z" />
<glyph unicode="&#xe970;" glyph-name="icon-apps-sort" d="M0 832v-341.333h469.333v469.333h-341.333c-70.692 0-128-57.308-128-128v0zM384 576h-298.667v256c0 23.564 19.103 42.667 42.667 42.667v0h256zM0 64c0-70.692 57.308-128 128-128v0h341.333v469.333h-469.333zM85.333 320h298.667v-298.667h-256c-23.564 0-42.667 19.103-42.667 42.667v0zM853.333 46.208v803.456l110.251-110.080 60.416 60.373-122.837 122.667c-23.156 23.117-55.124 37.413-90.432 37.413s-67.276-14.296-90.434-37.414l-122.665-122.452 60.288-60.373 110.080 110.037v-803.584l-110.293 110.165-60.288-60.373 122.837-122.667c23.156-23.117 55.124-37.413 90.432-37.413s67.276 14.296 90.434 37.414l-0.002-0.002 122.88 122.453-60.288 60.373z" />
<glyph unicode="&#xe971;" glyph-name="icon-archive" d="M810.667 960h-597.333c-70.692 0-128-57.308-128-128v0-896h853.333v896c0 70.692-57.308 128-128 128v0zM213.333 874.667h597.333c23.564 0 42.667-19.103 42.667-42.667v0-341.333h-682.667v341.333c0 23.564 19.103 42.667 42.667 42.667v0zM170.667 21.333v384h682.667v-384zM426.667 704h170.667v-85.333h-170.667v85.333zM426.667 234.667h170.667v-85.333h-170.667v85.333z" />
<glyph unicode="&#xe972;" glyph-name="icon-archway" d="M1024 819.072v98.261h-1024v-98.261l85.333-128v-627.072h-85.333v-85.333h341.333v341.333c0 94.123 76.544 170.667 170.667 170.667s170.667-76.544 170.667-170.667v-341.333h341.333v85.333h-85.333v627.072l85.333 128zM930.048 832l-56.875-85.333h-722.347l-56.875 85.333h836.096zM768 64v256c0 141.184-114.816 256-256 256s-256-114.816-256-256v-256h-85.333v597.333h682.667v-597.333h-85.333z" />
<glyph unicode="&#xe973;" glyph-name="icon-arrow-alt-circle-down" d="M512 960c-282.325 0-512-229.675-512-512s229.675-512 512-512 512 229.675 512 512-229.675 512-512 512zM512 21.333c-235.264 0-426.667 191.403-426.667 426.667s191.403 426.667 426.667 426.667 426.667-191.403 426.667-426.667-191.403-426.667-426.667-426.667zM554.667 405.333h170.667l-180.736-197.504c-18.901-21.077-51.925-21.077-70.827 0l-180.736 197.504h176.299v298.667h85.333v-298.667z" />
<glyph unicode="&#xe974;" glyph-name="icon-arrow-alt-circle-left" d="M512 960c-282.325 0-512-229.675-512-512s229.675-512 512-512 512 229.675 512 512-229.675 512-512 512zM512 21.333c-235.264 0-426.667 191.403-426.667 426.667s191.403 426.667 426.667 426.667 426.667-191.403 426.667-426.667-191.403-426.667-426.667-426.667zM469.333 490.667h298.667v-85.333h-298.667v-173.056l-197.504 180.736c-21.077 18.901-21.077 51.925 0 70.827l197.504 180.736v-173.952z" />
<glyph unicode="&#xe975;" glyph-name="icon-arrow-alt-circle-right" d="M512 960c-282.325 0-512-229.675-512-512s229.675-512 512-512 512 229.675 512 512-229.675 512-512 512zM512 21.333c-235.264 0-426.667 191.403-426.667 426.667s191.403 426.667 426.667 426.667 426.667-191.403 426.667-426.667-191.403-426.667-426.667-426.667zM752.171 409.771l-197.504-180.736v176.299h-298.667v85.333h298.667v170.667l197.504-180.736c21.077-18.901 21.077-51.925 0-70.827z" />
<glyph unicode="&#xe976;" glyph-name="icon-arrow-alt-circle-up" d="M512 960c-282.325 0-512-229.675-512-512s229.675-512 512-512 512 229.675 512 512-229.675 512-512 512zM512 21.333c-235.264 0-426.667 191.403-426.667 426.667s191.403 426.667 426.667 426.667 426.667-191.403 426.667-426.667-191.403-426.667-426.667-426.667zM730.965 490.667h-176.299v-298.667h-85.333v298.667h-170.667l180.736 197.504c18.901 21.077 51.925 21.077 70.827 0l180.736-197.504z" />
<glyph unicode="&#xe977;" glyph-name="icon-arrow-alt-down" d="M554.667 192v768h-85.333v-768h-216.704l216.875-237.013c22.699-25.301 62.336-25.301 85.035 0l216.875 237.013h-216.704z" />
<glyph unicode="&#xe978;" glyph-name="icon-arrow-alt-from-bottom" d="M554.667 21.333v682.667h213.333l-214.059 237.013c-22.4 25.301-61.525 25.301-83.883 0l-214.059-237.013h213.333v-682.667h-341.333v-85.333h768v85.333h-341.333z" />
<glyph unicode="&#xe979;" glyph-name="icon-arrow-alt-from-left" d="M1005.013 487.125l-237.013 216.875v-213.333h-682.667v341.333h-85.333v-768h85.333v341.333h682.667v-220.117l237.013 216.875c25.301 22.699 25.301 62.336 0 85.035z" />
<glyph unicode="&#xe97a;" glyph-name="icon-arrow-alt-from-right" d="M938.667 832v-341.333h-682.667v213.333l-237.013-216.875c-25.301-22.699-25.301-62.336 0-85.035l237.013-216.875v220.117h682.667v-341.333h85.333v768h-85.333z" />
<glyph unicode="&#xe97b;" glyph-name="icon-arrow-alt-from-top" d="M896 874.667v85.333h-768v-85.333h341.333v-682.667h-213.333l214.059-237.013c22.4-25.301 61.525-25.301 83.883 0l214.059 237.013h-213.333v682.667h341.333z" />
<glyph unicode="&#xe97c;" glyph-name="icon-arrow-alt-left" d="M1024 490.667h-768v216.704l-237.013-216.875c-25.301-22.699-25.301-62.336 0-85.035l237.013-216.875v216.704h768v85.333z" />
<glyph unicode="&#xe97d;" glyph-name="icon-arrow-alt-right" d="M1005.013 490.496l-237.013 216.875v-216.704h-768v-85.333h768v-216.704l237.013 216.875c25.301 22.699 25.301 62.336 0 85.035z" />
<glyph unicode="&#xe97e;" glyph-name="icon-arrow-alt-square-down" d="M554.667 405.333h170.667l-180.736-197.504c-18.901-21.077-51.925-21.077-70.827 0l-180.736 197.504h176.299v298.667h85.333v-298.667zM1024 832v-896h-1024v896c0 70.571 57.429 128 128 128h768c70.571 0 128-57.429 128-128zM938.667 832c0 23.509-19.157 42.667-42.667 42.667h-768c-23.509 0-42.667-19.157-42.667-42.667v-810.667h853.333v810.667z" />
<glyph unicode="&#xe97f;" glyph-name="icon-arrow-alt-square-left" d="M469.333 490.667h298.667v-85.333h-298.667v-176.299l-197.504 180.736c-21.077 18.901-21.077 51.925 0 70.827l197.504 180.736v-170.667zM1024 832v-896h-1024v896c0 70.571 57.429 128 128 128h768c70.571 0 128-57.429 128-128zM938.667 832c0 23.509-19.115 42.667-42.667 42.667h-768c-23.509 0-42.667-19.157-42.667-42.667v-810.667h853.333v810.667z" />
<glyph unicode="&#xe980;" glyph-name="icon-arrow-alt-square-right" d="M752.171 409.771l-197.504-180.736v176.299h-298.667v85.333h298.667v170.667l197.504-180.736c21.077-18.901 21.077-51.925 0-70.827zM1024 832v-896h-1024v896c0 70.571 57.429 128 128 128h768c70.571 0 128-57.429 128-128zM938.667 832c0 23.509-19.115 42.667-42.667 42.667h-768c-23.552 0-42.667-19.157-42.667-42.667v-810.667h853.333v810.667z" />
<glyph unicode="&#xe981;" glyph-name="icon-arrow-alt-square-up" d="M725.333 490.667h-170.667v-298.667h-85.333v298.667h-176.299l180.736 197.504c18.901 21.077 51.925 21.077 70.827 0l180.736-197.504zM1024 832v-896h-1024v896c0 70.571 57.429 128 128 128h768c70.571 0 128-57.429 128-128zM938.667 832c0 23.509-19.115 42.667-42.667 42.667h-768c-23.552 0-42.667-19.157-42.667-42.667v-810.667h853.333v810.667z" />
<glyph unicode="&#xe982;" glyph-name="icon-arrow-alt-to-bottom" d="M512 21.333c-15.36 0-30.763 6.315-41.941 18.987l-214.059 237.013h213.333v682.667h85.333v-682.667h213.333l-214.059-237.013c-11.179-12.672-26.581-18.987-41.941-18.987zM128 21.333v-85.333h768v85.333h-768z" />
<glyph unicode="&#xe983;" glyph-name="icon-arrow-alt-to-left" d="M1024 405.333h-682.667v-213.333l-237.013 214.059c-12.672 11.179-18.987 26.581-18.987 41.941s6.315 30.763 18.987 41.941l237.013 214.059v-213.333h682.667v-85.333zM0 832v-768h85.333v768h-85.333z" />
<glyph unicode="&#xe984;" glyph-name="icon-arrow-alt-to-right" d="M938.667 448c0-15.36-6.315-30.763-18.987-41.941l-237.013-214.059v213.333h-682.667v85.333h682.667v213.333l237.013-214.059c12.672-11.179 18.987-26.581 18.987-41.941zM938.667 832v-768h85.333v768h-85.333z" />
<glyph unicode="&#xe985;" glyph-name="icon-arrow-alt-to-top" d="M896 960h-768v-85.333h374.187c-11.947-2.389-23.339-9.045-32.128-18.987l-214.059-237.013h213.333v-682.667h85.333v682.667h213.333l-214.059 237.013c-8.789 9.941-20.181 16.597-32.128 18.987h374.187v85.333z" />
<glyph unicode="&#xe986;" glyph-name="icon-arrow-alt-up" d="M771.371 704l-216.875 237.013c-22.699 25.301-62.336 25.301-85.035 0l-216.832-237.013h216.704v-768h85.333v768h216.704z" />
<glyph unicode="&#xe987;" glyph-name="icon-arrow-circle-down" d="M512 960c-282.77 0-512-229.23-512-512s229.23-512 512-512c282.77 0 512 229.23 512 512v0c-0.316 282.643-229.358 511.685-511.97 512h-0.030zM512 21.333c-235.641 0-426.667 191.025-426.667 426.667s191.025 426.667 426.667 426.667c235.641 0 426.667-191.025 426.667-426.667v0c-0.267-235.534-191.133-426.4-426.641-426.667h-0.025zM693.035 458.368l60.331-60.331-181.035-181.035c-15.441-15.437-36.771-24.984-60.331-24.984s-44.889 9.548-60.331 24.985l-181.034 181.034 60.331 60.331 138.368-138.368v384h85.333v-384z" />
<glyph unicode="&#xe988;" glyph-name="icon-arrow-circle-left" d="M1024 448c0 282.77-229.23 512-512 512s-512-229.23-512-512c0-282.77 229.23-512 512-512v0c282.643 0.316 511.685 229.358 512 511.97v0.030zM85.333 448c0 235.641 191.025 426.667 426.667 426.667s426.667-191.025 426.667-426.667c0-235.641-191.025-426.667-426.667-426.667v0c-235.534 0.267-426.4 191.133-426.667 426.641v0.025zM522.368 266.965l-60.331-60.331-181.035 181.035c-15.437 15.441-24.984 36.771-24.984 60.331s9.548 44.889 24.985 60.331l181.034 181.034 60.331-60.331-138.368-138.368h384v-85.333h-384z" />
<glyph unicode="&#xe989;" glyph-name="icon-arrow-circle-right" d="M0 448c0-282.77 229.23-512 512-512s512 229.23 512 512c0 282.77-229.23 512-512 512v0c-282.643-0.316-511.685-229.358-512-511.97v-0.030zM938.667 448c0-235.641-191.025-426.667-426.667-426.667s-426.667 191.025-426.667 426.667c0 235.641 191.025 426.667 426.667 426.667v0c235.534-0.267 426.4-191.133 426.667-426.641v-0.025zM501.632 629.035l60.331 60.331 181.035-181.035c15.437-15.441 24.984-36.771 24.984-60.331s-9.548-44.889-24.985-60.331l-181.034-181.034-60.331 60.331 138.368 138.368h-384v85.333h384z" />
<glyph unicode="&#xe98a;" glyph-name="icon-arrow-circle-up" d="M512-64c282.77 0 512 229.23 512 512s-229.23 512-512 512c-282.77 0-512-229.23-512-512v0c0.316-282.643 229.358-511.685 511.97-512h0.030zM512 874.667c235.641 0 426.667-191.025 426.667-426.667s-191.025-426.667-426.667-426.667c-235.641 0-426.667 191.025-426.667 426.667v0c0.267 235.534 191.133 426.4 426.641 426.667h0.025zM330.965 437.632l-60.331 60.331 181.035 181.035c15.441 15.437 36.771 24.984 60.331 24.984s44.889-9.548 60.331-24.985l181.034-181.034-60.331-60.331-138.368 138.368v-384h-85.333v384z" />
<glyph unicode="&#xe98b;" glyph-name="icon-arrow-comparison" d="M962.133 531.755l60.331-60.331-382.464-382.421-213.333 213.333-281.003-281.003h153.003v-85.333h-213.333c-47.061 0-85.333 38.272-85.333 85.333v213.333h85.333v-153.003l341.333 341.333 213.333-213.333 322.133 322.091zM938.667 960h-213.333v-85.333h153.003l-281.003-281.003-213.333 213.333-380.8-380.8 60.331-60.331 320.469 320.469 213.333-213.333 341.333 341.333v-153.003h85.333v213.333c0 47.061-38.272 85.333-85.333 85.333z" />
<glyph unicode="&#xe98c;" glyph-name="icon-arrow-down" d="M710.784 201.045l-155.008-154.965-1.109 913.92h-85.333l1.109-913.365-154.453 154.453-60.331-60.288 167.211-167.211c23.164-23.168 55.167-37.498 90.517-37.498s67.353 14.33 90.517 37.498l167.211 167.211z" />
</font>
</defs>
</svg>
